&title=Heavensdoor
&artist=LeaF
&first=0
&des=DgsEOs
&clock_count=4
&wholebpm=240.000
&lv_5=14+
&des_5=
&inote_5=(240)
{1},
{1}4p5[2:1]/5q4[2:1],4>5[8:5]/5,
{8}4,,4,,4,,5,5,4,,4,,4,,5,5,4,,4,,4,,5,5,4p5[8:3],,,,,,7b,,
{8}2b-5[8:1],,8-4[8:1],,3,,6,6,2-5[8:1],,8-4[8:1],,3,,7,7,2-5[8:1],,8-4[8:1],,3,,5,5,2>5[8:1],,8-4[8:1],,3,,2b,,
{8}7b<4[8:1],,1-5[8:1],,6,,3,3,7<4[8:1],,1-5[8:1],,7,,2,2,7<4[8:1],,1-5[8:1],,8,,4,4,7-3[8:1],,1-5[8:1],,8,,2b/6b,,
{8}4b/8b-4[8:1],,3,3b,5-7[8:1],,4b,,8b-4[8:1]/3,,2,2b,5-7[8:1],,4b,,8b-4[8:1]/3,,2-5[8:1],,6,,3,3,8-4[8:1],,2-5[8:1],,6,,4b/7,,
{8}3/1b,,,6b/5,,,2/4b,,1/6b,,,2/3b,,,7/5b,,
{1}4b<2[4:6]/6h[1:2],,
{4}2<3[8:29],3>3[4:13],,,,,,,,,,,,,,,,,
{32}3bs7[4:13],4,5h[16:63],,,,,,
{2},,,,,,,
{4},
{8}8,8,4,,3/7,,2,2,5,4,6,,8/5,,7,7,4,5,2h[4:1],,1,3,7h[4:1],,5,6,4,5,3,3,4,4,
{4}2h[8:1]/1h[8:1],2h[8:1]/1h[8:1],
{16}3,4,3,4,3,,,,
{4}5h[8:1]/6h[8:1],5h[8:1]/6h[8:1],
{16}7,8,7,8,7,,,,
{8}1b,1b,1b,1b,1b,1b,1b,1bw5[8:4],,,,,,,,,
{4}3/5,3/6,3/7,
{8}4,4,
{4}3/5,3/6,3/7,
{8}4,4,
{4}3/5,3/6,3/7,
{8}4,4,
{16}3/5<8[8:3],,,3,,,3,,4,,,,,,,,
{4}4/6,4/7,4/8,
{8}5,5,
{4}4/6,4/7,4/8,
{8}5,5,
{4}4/6,4/7,4/8,
{8}5,5,
{16}6q2[8:3]/4,,,4,,,4,,
{4}3,,
{4}3/5,2/6,1/7,
{8}4,4,
{4}3/5,2/6,1/7,
{8}4,4,
{4}3/5,2/6,1/7,
{8}4,4,
{16}3/5p8[8:3],,,2,,,1,,
{2}1,
{4}2/8,3/7,4/6,
{8}1,1,
{4}2/8,3/7,4/6,
{8}1,1,
{4}2/8,3/7,4/6,
{8}1,1,
{16}8/2p5[8:3],,,7,,,6,,
{2}6,
{8}5>2[8:1]*<8[8:1],,,,
{16}1,8,1,8,
{8}2qq3[8:3],,6,6,6,6,7-4[8:1],,3,3,2-7[8:1],,5,5,6,8,8>5[4:2],,
{16}7,,,7,,,7,,6,,,,,,,,
{2}5>2[8:1]*<8[8:1],
{8}1,8,1/7,1/7,1-3[8:1],,7-5[8:1],,8-4[8:1],,6,6,5,,3,3,4/2,,7,7,
{16}1/6V82[8:3],,,2,,,3,,4,,,,,,,,
{2}5>2[8:1]*<8[8:1],
{16}1,8,1,,7,,7,,2>5[8:1],,,,
{8}6,6,7h[4:1],,
{16}5,6,5,6,4>1[8:1],,,,
{8}6,6,5,5,4,4,
{16}3/7,,,2/6,,,1/5,,8-3[8:1]/4,,,,,,,,
{2}5>2[8:1]*<8[8:1],
{8}1,1,1/8,1/8,2-6[8:1]/7,,8-4[8:1],,3-7[8:1],,5,5,6,,3,3,2,,5,5,
{16}4/6,,,3/7,,,2/8,,1-5[8:1],,,,,,,,
{8}4,,4,,4,,5,5,5/4,,4,,4,,5,5,5/4,,4,,4,,5,5,5bq4[8:3]/4bp5[8:3],,,,,,3/6,,
{16}2/5,,3,4,3,,
{8}5,2-4[8:1],2,6-1[8:1],6,5,4,8,7,
{16}3,5,
{8}3,7,7,2-5[8:1],2,6<1[8:1],6,
{16}2,3,4,5,6,7,8,1,
{4}2/5bq4[8:3],,,3/6,
{8}4/7,
{16}6,5,
{8}6,7,
{16}4,5,4,5,
{8}3>8[8:1],3,6,6,1,1,7-4[8:1],7,1,2,3,3,5,6,
{16}3,4,5,6,7,8,1,2,
{4}3/4bp5[8:3],,,3/6,
{16}1,2,3,,7h[8:1],,2,3,4,,8h[8:1],,3,4,5,,
{8}1h[8:1],5,5,5,7h[8:1],4,4,4,6-4[8:1],3,3,3,2-8[8:1],5,5,5,
{4}5bq4[8:3],,,3/6,
{8}4/5,,,3-5[6:1],6-4[12:1],,,,2/7,2/7,,1-5[6:1],8-4[12:1],,,,3/6,,,,2-6[8:1]/7-3[8:1],,,,4p5[8:3],4,,5,5,,3/6,,
{8}4/8,
{16}2,1,2,,
{8}8-4[8:1],7-5[8:1],8,7,3,
{16}2,4,2,,
{8}5,6,3-5[8:1],3,7,7,8h[4:1],
{16}2,3,4,5,,,7h[4:1],,5,4,3,2,1,8,
{4}7/5bq4[8:3],,,3/6,
{8}1/7,2,2,
{16}8,1,8,1,8,,
{8}3-5[8:1],3,
{16}1,8,7,6,4-2[8:1],,4,,1,8,7,6,3,,3,,8,,2,1,2,1,2,,8,,4,5,4,5,4,5,
{4}4bp5[8:3],,,3/6,
{16}5/1,,3,4,3,,5,6,7,8,1,2,5,4,3,2,7,6,5,4,8,,8,,7,6,5,4,1,,1,,2,4,3,,6,5,7,,2,1,2,,
{8}8,8,5bq4[8:3]/7,,,6,,,7,,
{16}3/8,,2,1,2,,3/8,,2,1,2,1,2,,,,3/7,,6,5,6,,3/7,,6,5,6,5,6,,,,3,4,3,4,3,,5,4,5,4,5,,2,,2,,
{16}3,8,3,8,3,8,3,8,
{24}3,4,5,6,7,8,1,2,3,4,5,6,
{1}7w3[4:2],
{8}4z8[2:1],5q4[8:3],,,,,,,
{16}2,1,2,1,2,1,2,1,2,1,2,1h[16:5],,,,,2,8,2,8,2,8,2,8,2,8,2,8h[16:5],,,,,
{16}2,7,2,7,2,7,2,7,2,7,2,7,2,7,2,7,3,7,3,7,3,7,3,7,3,7,3,7,3,7,3,7,4,6,4,6,4,6,4,6,4,6,4,6,4,6,4,6,
{4}5bp4[60#8:7],,5?p4[120#8:14]*p4[120#8:14],,,,,,,,,,,,,,,,,
{8}2/6b-1[8:1],,3b,,,7/5b,,,3b/4-8[8:1],,1b,,,4b/6,,,2b-6[8:1]/3,,8b,,,7b/4,,,6b-2[8:1]/1,,8b,,,1/4b,,,5b-1[8:1]/6,,3b,,,,
{24}2b/8b,3/7,4z8[12:17]/6s2[12:17],5,,,
{1},,
{8}1b-5[8:1]/8b-4[8:1],,1b/8b,,,3bV17[16:5],,,7b,,5bq4[8:4],
