&title=極樂淨土
&artist=GARNiDELiA
&first=0
&des=SEiSAN
&clock_count=4
&lv_5=13+
&inote_5=(131)
{1},
{8},,,,,,,,
{8}1b>3[8:10]*<6[8:10],,,,,,,,,,,,,,4,5,3h[8:3],,,4,2h[8:3],,,4,
{8}3>5[8:4]/5<3[8:4],,,,,,,,
{8}3/7,2,6/1h[8:2],,6,7,3/8h[8:2],,4,3,2h[8:2]/7,,
{8}5-8[8:1],,4/5>7[8:8],,
{8}7h[8:1],,6h[8:1],,5h[8:1],,4h[8:1],,3,,,,
{8}2-7[32:3]/7-2[32:3],,2b>4[8:1]/7b<5[8:1],,
{8}7/2,,6v4[8:1]/2,,6/4<8[8:4],,{16}2h[16:1],,3h[16:1],,{8}4,3,4>1[8:2],3,
{8}4/8,7,6,5,
{8}7/1,3/5,6v4[8:1]/2,,6/4<8[8:4],,{16}2h[16:1],,3h[16:1],,{8}4,3,4,3,
{8}3/7,2/6,1>6[8:6]/5,8/4,
{8}1/6,,7,,8,,{8}8h[16:1],7h[16:1],
{8}8h[8:1]/3h[8:1],,1h[8:1]/6h[8:1],,8h[8:1]/3,2,1h[8:1]/6,7,
{8}8-4[8:1]/2,,8/3,,1-5[8:1]/5,,1>4[8:1]/6,,
{8}1b,,3/6,2/7,1-3[8:1]/8-6[8:1],2/7,8/1,,
{8}4,,1-7[8:1],7-2[8:1],1,{16}5,5,,,{8}6,7,4V62[8:4],7-1[8:3],{16},,,,,,,,,,,,,,
{8}2,3/7,4/6,7,2-4[8:1]/5,1,4v5[8:2],,5-7[8:1],,8,,7-5[32:3]/2-4[32:3],,
{8}7/2,,7h[8:4],1-3[8:1],3v4[8:2],1,,{16}6,6,,,{8}3/5,4/6,
{16}3,5/3h[16:5],,,,,,,
{8}1>3[8:1]/8<6[8:1],2/7,1/8,,2v1[8:1]/7v8[8:1],1-3[32:3]/8-6[32:3],7/2,,,
{8}4-7[8:1]/2h[8:1],,4-8[8:1]/3h[8:1],,4h[8:1],,,,
{8}3/6,1/8,2-8[8:1]/7-3[8:1],1/6,2/7,,4,5-8[8:1]/2,,4h[8:1],,
{8}3p7[8:1]/7p3[8:1],7>2[32:3]/3<5[32:3],,,,
{8}7-2[8:4],3,4,4,5,{16}4,4,,,
{8}3,5<1[8:1]/1q5[8:1],,1p5[8:1]/5>2[8:1],,1/5,,2-5[8:1]/5,,
{8}2/5,,7-4[8:1]/3,,7/3,,3/7,2>5[8:1]/6v1[8:1],,2/6,,4/7,2-5[8:1]/6-2[8:1],,
{8}2<7[8:3]/6,,4,3,4,3,2h[8:1],{16}8<5[8:2],1>4[16:3],,,8/1,,,,,,,,,,
{8}2-7[16:1]/7-2[16:1],,2b/7b,,
{8}3/4,5,6-2[8:1]/1>4[8:1],7/8,1/6<8[8:1],,6,{16}3,3,{8}2/6,{16}1-5[8:1],5,
{8}5-2[8:1],1,6,8b,8b,{16}1,8,
{8}1>3[8:1],,1/7qq5[8:1],{16},6,{8}7/1v3[8:1],2,1/7,,
{16}4/6,7,8,1,5,6,7,8,{8}1/5-1[8:1],,4/5,,
{8}2/7,{16}6-2[8:1],5,,,{8}4/6,5h[8:7],3,,,
{8}6h[8:1],,4h[8:2],,3h[8:1],4,4/5,
{8}1-7[8:1],7v6[8:1],,,8-2[8:1],2v3[8:1],,,1,1s5[32:11],,7,7,8,,
{8}8b-5[8:4]*-5[8:4]/2h[8:6],,,,,,,,
{16}5<8[8:3]/2h[16:1],,3h[16:1],,{8}4,3,4>1[8:2],3,
{8}4/8,7,6,5,
{8}7/1,3/5,6v4[8:1]/2,,6/4<8[8:4],,{16}2h[16:1],,3h[16:1],,{8}4,3,4,3,
{8}3/7,2/6,1>6[8:6]/5,8/4,
{8}1/6,5,7,6,8,7,{8}8h[16:1],7h[16:1],
{8}8h[8:1]/3h[8:1],,1h[8:1]/6h[8:1],,8h[8:1]/3,2,1h[8:1]/6,7,
{8}8-4[8:1]/3,2,8/3,2,1-5[8:1]/6,5,1>8[8:4]/6,7,
{4}8b/1b,,,,
{16}6,,4,,3,4,,4,2,,2,1,,1,3,,
{16},,3,,6,5,,5,7,,7,8,,8,1,,{16},,4,,6,5,,1,8,,7,8,,2<4[16:7],1,,,,,,
{8}4w8[8:2],,,,,,
{8}5bV74[8:2]/3b,,3/5,2,1,{16}1V72[8:2],1,,,
{8}7/1,6h[8:1],,8-5[8:2],{16}4,4h[16:5],,,,,,,
{8}6z2[32:6]/2s6[32:6],2/6,,,3-1[32:3]/7-1[32:3],1-6[64:7]*-4[64:7],3/7,,,
{8}3>8[8:1]/7,,8<5[8:2]/3<5[8:2],,,,,,
{8}6/3,8/1,7-1[8:1]/2-6[8:1],8/3,7/2,,2,5-8[8:1]/3,6,5/4,1,
{8}2/7,1-4[32:3]/8-5[32:3],,,,
{8}4/8qq6[8:2],5,6qq5[8:2],4,3,{16}2,2,,,
{8}2,5<1[8:1]/1q5[8:1],2,1p5[8:1]/5>2[8:1],,1/5,,2-5[8:1]/5,6,
{8}2/5,6,7-4[8:1]/3,2,7/3,2,3/7,2>5[8:1]/6v1[8:1],,2/6,,4/7,2-5[8:1]/6-2[8:1],1,
{8}2<7[8:3]/6,,4,3,4,3,2h[8:1],{16}8>4[8:2],1<5[16:3],,,8/1,,,,,,,,,,
{8}2-7[16:1]/7-2[16:1],,2b/7b,,
{8}3/4,5,7-3[8:1]/1>4[8:1],8,1/7qq5[8:1],,7,{16}3,3,{8}2/6,{16}1-5[8:1],5,
{8}5-2[8:1],1,6,8b,8b,{16}1,8,
{8}1>3[8:1],,1/7qq5[8:1],{16},6,{8}7/1v3[8:1],2,1/7,6,
{16}4/6,7,8,1,6,7,8,1,{8}2v3[8:1]/6v7[8:1],,2/6,,
{8}1/7,{16}6v3[8:1],5,,,{8}4/6,5h[8:7],3,,,
{8}6h[8:1],,4h[8:2],,3h[8:1],4,6/5,
{8}1-7[8:1],7v6[8:1],,,8-2[8:1],2v3[8:1],,,1,8z4[32:11],,2,2,3,,
{8}8b-5[8:4]*-5[8:4]/2h[8:6],,,,,,,,3>1[8:1]/5<7[8:1],,
{8}5b/3b,,,1-4[8:4],1/7-3[8:3],,,,,,,{16}4,4,{8}4,3/5h[16:1],6>3[8:2],
{16}4/5h[16:1],,
{8}4/6,,,2,5h[8:1],4h[8:1],6h[8:2],,
{8}2-6[8:1],7-3[8:1],2-8[8:1],7,2,7,
{16}1>4[8:6],1,8<5[8:5],8,
{8}1b/8b,,,,,,,,,,,{16}5,5,{8}5,6h[16:1]/4h[16:1],4/6,
{16}3/5h[16:1],,
{8}3/5,,,3-6[8:4]/6,2/7-2[8:3],,,,,,,,
{24}7/8,1,2,3,4,5,1,8,7,6,5,4,
{16}1b/3b,,{24}1,2,3,{8}4,3/5,2/8,{24}8,7,6,{8}5,6/4,
{8}7v6[8:1]/2v3[8:1],,7-2[8:2],,,3,{16},3-6[16:4],,,{8}3,,,7-2[32:5],7,,,,
{16}1/8,2/7,,,3/1,4/8,,,6/8,1/5h[8:2],,,
{16}6,7,8,1,
{8}2bV41[8:2]/6bV85[8:2],,,,,,7>2[8:1]/3<6[8:1],4/8,3/7,,
{8}4/8,3/7,1/5,{16}2,2,4,4,5,5,8,7,6,5,1,2,3,4,8,1,7,2,6,3,5,4,
{16}3/6,,1,8,{8}2-5[8:1]/7-4[8:1],1/8,2/7,,,,
{8}4h[8:12]/5h[8:12],,,,,,,,,,,,,,5>5[8:8]/4>5[8:8],,,,,,,,,,,,,,,,,,
{8}3,2h[8:2]/5V36[8:2],,,2,,,2-7[8:1]/7-2[8:1],,2/7,,8/1,2h[8:2]/5-8[8:1],,5,,
{16}4,8,3,7,2,6,1,5,8,4,1,5,2,6,3,7,{24}3,4,5,6,7,8,{32}1-5[8:1],2,3,4,5,6,7,8,{8}1,,
{8}2b/7b,{16}7,6,
{8}4/5,3/8>3[8:1],5/6-2[8:1],8,6V84[8:2],,1,{16}2,2,{8}3,{16}2-5[8:1],5,
{8}5-1[8:1],2,6,8b,8b/1b,{16}7,7,
{8}8V24[8:1],,8/7qq5[8:1],{16},6,{8}7/3v1[8:1],2,3/7,5,
{16}4/6,7,8,1,7,8,1,2,{8}3v2[8:1]/7v6[8:1],,3/7,,
{8}2/7,{16}6q3[8:1],5,,,{8}4/6,5h[8:7],3,,4,
{8}6h[8:1],,4h[8:2],,3h[8:1],4b,6b/5b,
{8}1-7[8:1],7v6[8:1],,,8-2[8:1],2v3[8:1],,,1,8z4[32:11],,3>1[8:1],2,3,,
{8},1-7[8:1],7v6[8:1],,,8-2[8:1],2v3[8:1],,,1,2/7,3/6,1-4[32:3]/8-5[32:3],2/7,1/8,,
{8}5b<8[8:5]/4b,,
{8}5/4,3,4,3,4,3,{16}8-5[8:5],8,2,2,
{8}1/8,2,1,2,4,3,2-5[8:1]/7-4[8:1],1/8,
{8}7/2,,6v4[8:1]/2,,6/4<8[8:4],,{16}2,2,3,3,{8}4,3,4,3,
{8}3/7,2/6,1>6[8:6]/5,8/4,
{8}1/6,5,7,6,8,7,{16}8,8,4,4,
{8}8h[8:1]/3h[8:1],,1h[8:1]/6h[8:1],,8h[8:1]/3,1,1h[8:1]/6,8,
{8}8-4[8:1]/2,1,8/2,3,1-5[8:1]/6,5,{16}1>8[16:7]/5,6,7,8,
{4}1b,,{8}4-2[32:3]*-6[32:3],1/7,4,
E
