&title=櫻ノ詩
&artist=はな
&first=-0.329
&des=xiaon269
&lv_5=13+
&des_5=xiaon269
&inote_5=
(180){4},{8},,Ch[2:1],,,D6,
D7,D8,{4}E1/D1,,D2,
D3,D4,{8}D5/E5,,,5p4[2:1],
,,,,,,{4}6x/3xh[2:1],
5,7,{8}1,2,3,6,
7,8,{4}1p8[4:3],{8},,,,,,,,Ch[2:1],
,,D4,
D3,D2,{4}E1/D1,{8}7-4[8:1],8,7,2-5[8:1],
1,2,{4}Cf,4bx<3[2:1],6h[4:1],
{8},4-8[8:1]*-6[8:1],{4}4,,7h[4:3]/E3/B2,
5-1[8:1],5-3[8:1],5,{8}5>6[2:1],5,
{2}3h[4:1],{4}5-1[8:1],5/8-6[8:1],
8/4-2[8:1],4b/8b,{8}1/5,2,3,2/6,
3,4,{4}5h[4:1]/7h[4:1],,7-4[8:1]/5-2[8:1],
7x/5x,1>4[4:1],1/5<8[4:1],{8}5,3h[8:5],
,7,{4}7h[4:1],{8},6/2,{4}1/5,
{16}4/8,5/1,6/2,7/3,,,,,{4}8bx>7[2:1],2h[4:1],
{8},8-4[8:1]*-2[8:1],{4}8,,3h[4:3]/E7/B6,
1-5[8:1],1-7[8:1],1,{8}1<2[2:1],1,
{2}7h[4:1],{4}1-5[8:1],1/4-2[8:1],
4/8-6[8:1],8b/4b,{8}5/1,6,7,6/2,
7,8,{4}1h[4:1]/3h[4:1],,3-8[8:1]/1-6[8:1],
3x/1x,5<8[4:1],5/1>4[4:1],{8}1,7h[4:3],
,3,{4}3h[8:3],,6h[4:1]/2h[4:1],
,6bpp8p3[2:1]/2bqq8q5[2:1],{8},,,,,,6qq3[1:1],
7,{2}8h[1:1],
{4},,,2-5b[8:1],
2-6b[8:1],2<4[2:1],{2}7xh[4:1],
{4}8q5[4:1],8/6h[4:3],,7-3[8:1],
7-4[8:1],7>5[2:1],{2}2h[4:1],
{8}3q5[2:1],2,{4}1h[2:1],,,5-8[8:1]/1-4[8:1],
1/5V31[4:1],{8}1V75[4:1],,,2-7[4:1],
,2,{4}6-3[4:1],6,{8}8,1,
7,2,3pp6[1:1],2,{2}1h[1:1],
{4},,,7b-4[8:1],
7b-3[8:1],7>5[2:1],{2}2xh[4:1],
{4}1p4[4:1],1/3h[8:3],{8},B7/B8,{4}2-6[8:1],
2-5[8:1],2<4[2:1],{8}7h[4:1],,,8h[2:1],
,,,1-4[8:1],2,1,8-5[8:1],7,
{4}8,3b/6b,{16}2x,1x,8x,7x,6x,8x,1x,2x,
3x,4x,1x,8x,7x,6x,5x,2x,3x,4x,5x,6x,{4}7x/Cf,
{2}B5h[4:1]/B4h[4:1],{8}7x/8x,8-4[8:1]/7v5[8:1],8/7,8/7,
,,4x/3x,4-8[8:1]/3v1[8:1],4/3,4/3,,,{4}6<1[4:1],
1-5[4:1],5>2[4:1],2-6[4:1],
{8}6<1[4:1],{16},,,,2,3,4,5,8,7,6,5/1,,,{4}4-6[8:1]/8-2[8:1],
8-6[8:1]/4-2[8:1],4/8,{8}3/7,3h[4:1]/7h[4:1],
,,1/5,1h[4:1]/5h[4:1],,,{4}5/1,
2-5[8:1]/6-1[8:1],2b/6b,{8}7-4[8:1],8,1,2,
3-8[8:1],4,5,6,2-5[8:1],1,8,7,
6-1[8:1],5,4,3,1x/2x,1-6b[8:1]/2-6b[8:1],2/1,2/1,
,,6x/5x,5-2b[8:1]/6-2b[8:1],6/5,6/5,,,{4}8<5[4:1],
5>2[4:1],2q8[4:1],8<5[4:1],
{16},,,,,,,,6,5,{8}6,{16}3,4,{8}3,
7/2,1/8,{4}1/8,7h[8:1]/2h[8:1],{8}3/7,7-2[8:1]/4-1[8:1],
,,,,{4}6h[8:1]/3h[8:1],{8}5/2,5-8[8:1]/2-7[8:1],
{16},,,,,,,,4x,5,4,5,4,5,4,5,
3x,6,3,6,3,6,3,6,2x,7,2,7,2x,7,2,7,
1x,8,1,8,1x>8[1:1]*-5b[8:1],8,{8}1,{2}Cf,
{8},,,,,,3,3,
6,6,{16}2,2,7,7,1b,8,2,7,1,8,2,7,
7,5,6,2,2,4,{8}3,{24}8x,7x,6x,2x,3x,4x,7x,6x,5x,3x,2x,1x,
8x,4x,5x,6x,7x,8x,{4}2bz6b[8:1],2b/Cf,{8}7x-4[8:1],4xV61[4:1],
,2-6[8:1],,,3x,3x-8[8:1],{4}8V25[4:1],
6-2[8:1],6,{8}7x/8x,7,2/1,2,
{4}4-7[8:1],6-1[8:1],8-3[8:1],2-5[8:1],
,2b/6b,{8}1p3[4:1],8,{4}1,
{8}8-4[8:1],2,{4}6h[4:1],{8}5p7[4:1],4,{4}5,
{8}4-8[8:1],6,{4}2h[4:1],{8}7,7h[8:1],5,5h[8:1],
3,3h[8:1],1,1h[8:1],8,8h[8:1],{4}1b,
{8}1/8,1/8,{4}2/7,{8}3,3/7,3,3/8,
3,3/1,3,{16}1,8,{8}7pp3[8:5],6h[8:5],{4}7b,
{8},,,,6,6/2,6,6/1,
6,6/8,6,{16}8,1,{4}2qq6[8:5],2b/3h[2:1],
,,4V28[4:1]/8-4[8:1],8V64[4:1],
{2}6<6[1:1],2<6b[2:1],
{16},,,,,,,,4,6,5,2,5,3,5-1[8:1],4,
6,4,{8}5b,{24},,,2x,3,4,8,7,6,5,4,3,2,1,8,7,6,5,
1x,2,3,7,6,5,4x-8[1:2],3,2,1,,,{2}4b/A3f/D3f/E3f/B3f,
{8},,,,,,,,,,,,,,8/7,
4/5,
2/1,4/6,3/7,1/5,2/6,4/8,1/3,5/7,
3b/6b,1b/8bpp1pp3pp5pp6pp8b[8:29],4b/5b,1bh[8:29],
E
