&title=INTERNET ANGEL
&artist=Aiobahn +81
&first=0.06
&des=Asyura
&lv_5=13
&inote_5=(100)
{4},3x>6<3[4:14],E5h[4:14],,,,,,,,,,,,,,,6<3>6b[4:11],E5h[4:11]/D5h[4:10],,,,,,,,,,,,
(105){4}E2f,
(113){4}E3,
(125){4}E4,
(135){4}E5,
(140){8}E6f,E7,
(150){8}E8,E1,
(170){16}1bx,2,3,4,
(175){24}5bx,6,7,8,1,2,
(180){8}3x/7bx-4[8:1],,7/8,1,2-5[8:1],,2/8,7,6<1[8:1],,6/5,4,3>8[8:1],3,8,7,6-3[8:1],6,3,2,1-4[8:1],1,6,7,8-4[8:1],8,2-6[8:1],2,1,8,7b/3b,,
{8}2-5-3[2:1],,6,6,,7,8,,1-6-8[2:1],,5,5,,4,3,,2-6-3[2:1],,5,5,,7,8,,1-4-8[2:1],,5,5,,3,2,,1-5[4:1],,5-2[4:1],6,,7,7,,8-4[4:1],,4-7-5[2:1],3,,2,2,,1>4[4:1],,4-8[4:1],,8<5[4:1],,5>2[4:1],,8,8,7,6,5/1,2,3x/7x,,
{8}8bqq3[2:1]/5,,4,4,3<6[4:1],2,2x,,{8}1pp6[2:1],,5,5,6>3[4:1],7,7x,,8pp4[2:1],,5,5,4<7[4:1],3,3x,,2h[8:1],8,1h[8:1],7,8h[8:1],4,6/2,,3pp8[2:1],,1,1,8>4[4:1],7,7x,,6qq1[2:1],,8,8,1<5[4:1],2,2x,,3>8[8:1],,5-1[8:1],,4-8[8:1],,7,7h[8:1],1,1h[8:1],4,4h[8:1],{16}8,1,2,3,4/8b,,,,
{8}6xp4[8:3],,,2,1-5[8:1],,1b,,7xp4[8:3],,,2,1-5[8:1],,1b,,3xq5[8:3],,,7,8-4[8:1],,8b,2,,3/6,,4v1b[8:1]/7,,8,8b/A1f,,2>5[4:1]/7,,5<8[4:1],,8>3[4:1],,3,,6p2[4:1],,2p6[4:1],,6<1[4:1],,2,,4h[8:1],,5h[8:1]/6h[8:1],,7h[8:1]/8h[8:1],,1h[8:1]/2h[8:1],,
{16}3,4,3,4,2,5,2,5,1,6,8,7,{32}8x,1,2,3,4,5,6,7,{8}8-3<4-6[2:1]*>2-4<6b[2:1]/B5/B4/E5f,,,,,,,,7<6-3<4-7[2:1]/8,,,2,,,{12}8,8,8,8bxh[4:1],,,{8}E6hf[4:13],,{16}7,,,8,,,1,,2-5[8:1],,,,,,,,{16}4,,,2,,,8,,7>2[8:1],,,,,,,,3,,,4,,,7,,8-3[8:1],,,,8<2b[2:1],,,,,,,,,,,,
{12}7,,,8,3,3,4,2,6,,7,8/4,8/4,,,2,,6,6,5,7,3,,3,2bx/4bx,,7,8bx/6bx,,2/1,8bx/3bx,,8/7,{32}8b/7b,6bx/1bx,2bx/5bx,3bx/4bx,{8},2h[4:1],,4h[4:1],,{16}7-3b[8:1],8,1,2,3/7x,Cf,,,
{16}2-5-1[4:1],,,1,2,,8,,7-4v1[4:1],,,1,7,,2,,3-8-5[4:1],,,5,3,,6,,7b-5-3[4:1],,,,7/3<4-8-6b[8:3],,2,,1xbh[4:1],,,,,,,,3h[16:3],,,4,2,,5,,1>5[8:1],,5<1b[8:1],,,,,,E7f/B6/B7,,,,
{8}3h[4:1],,{32}A7h[4:1],,,,,,,,1b,B7f,C,B3,A3,,,,{16}2x/5x,,6,3,,7,4,,8-4[8:1]/5-2[8:1],,,,8/5,,,,1x/5x,,2,4,,7,5,,3b,5,3,5,2,6,1,7,4b,6,4,6,3,7,2,8,{24}1bx,2x,3x,7bx,6x,5x,2bx,3x,4x,8bx,7x,6x,{32}1bx,2bx,3bx,4bx,5bx,6bx,7bx,8bx,1bx,2bx,3bx,4bx,5bx,6bx,7bx,8bx,1bx>4-8-6-1-5[8:20]/B6f/E6h[4:4]/A6h[4:4],,,,,,,,,,,,,,,,,,,,,,,,,,,,,,,,{4},,,,{8},8hx[24:30],,,,,,,E7,{24}B5,,,,,{24}B3,B2,E2h[24:14],,,,,,,,,,,,,,8z4b[8:3]*v6[8:3],
