&title=超ナイト・オブ・ナイツ
&artist=COOL&CREATE
&first=0
&des=yidauuu咲鵺
&lv_5=14.4
&des_5=yidauuu咲鵺
&inote_5=
(193){4},,7b-2b[8:1]/1bq5b[8:1],7/1,
{16}1/4,8/3,{8}7/2,,8-3[8:1],,8/1-5[8:1],,1,
{16},,4,5,3,6,{8}4,{4}2b-7b[8:1]/1b-4<5b[8:1],1/2b-6b[8:1],
{16}2/1,8,{8}7,,5bp1b[8:1]/7b-2b[8:1],,7/5,{16},,,,2,
8,2,8,3,7,3,7,{8}5/4-8[8:1],3,4/5-1[8:1],6,
5/3-8[8:1],4,3,5,{16}3b,8,3,8,3,8,3,8,
3,8b,4,7,4,7,4,7,4,7b,5,6,5,6,5,6,
5,{80}6,,,5,,,,{20}6,5,6,{80},{16}4,3bx,2,1,8,7,6,5,4,3bx,2,
{24}1,8,7,6,5,4,{32}3,2,1,8,7,6,5,4,{2}3bxV57b[1.2373##0.6218]*V17[1.2373##0.6218],
{16},,,,,,,,,,,,,,,,,,,7,
7,7,,,{2}6b-2>6b[4:5]`8b<3v8[1:2],
{8},,,,,,,,,,6,
3,1b-5b[0.4601##0.1492],,,Cfh[8:5],
,,,,,,,,{4}C/B5/B4,
{16}8/1,7/2,{8}6/3,{4}5bh[8:1]/4bh[8:1],Cf,
6bh[8:1]/7bh[8:1],Cf,8bh[8:1]/1bh[8:1],Cf,
3bh[8:1]/2bh[8:1],Cf,7bh[16:3]/4bh[8:1],5bh[8:1]/2bh[16:3],
6bh[16:3]/4bh[8:1],5bh[8:1]/3bh[8:1],{8}8b/1b,2b/4b,5b/7b,8b/1b,
{16}1bx,8b-5b[16:1],1b-4[0.2332##0.0715],8b,1bx,8b,,,,,{8}6/4,7,5/3,
2,{16}6/4,7,2,7,2,6,2,6,{8}1-5[8:1],1,1/7-3[8:1],
7,7,A3,4/8,3b,3/5,2,4/6,
7,{16}3/5,2,7,2,7,3,7,3,{8}8-4[8:1],8,8/2-6[8:1],
2,2,A6,5b/4b,{16}5,6,5,7,{8}5,{16}4,3,
4,2,{8}4,7b/2b,8b/1b,{16}8,7,8,6,{8}8,{16}1,2,
1,3,{8}1,3b/7b,1b,2/8,{16}1,1,{8}1,1,
2/8,7/3,6/4,5,7h/C,2h/C,,4w8[0.4632##0.1523],
{4}5/3,4b,{8}3,8,{16}2,1,{8}3,
5,4,{16}6,5,{8}7,3,4,{16}4,5,{8}3,
5b,7b,1b,3b,1,1,{16}6,5,{8}7,
8,8,{16}3,4,{8}2,1,1,{16}6,5,{8}7,
2-6[8:1],8-4[8:1],2,8,3x,3,5,5,
4x/6x,6,4,4,3x/5x,6,7,8,
7x/4x,3,2,1,2/5,2/5,{16}3,4,{8}3,
7/4,7/4,{16}6,5,{8}6,{4}8h[8:1]/1h[8:1],{16}4b,5b,{8}4b,
6/3,{16}6/3,7/2,{8}8/1,2b/7b,6/2,3,{16}5,6,{8}5,
7/1,6,{16}3,4,3,4,{8}5/2,8/7,{16}1,8,1,8,
{8}7/1,7/1,2/8,8/2,7/3,2,{16}8,7,{8}8,
6/4,7,{16}2,1,2,1,{8}8/3,6/5,{16}4,5,4,5,
{8}6/4,6/4,3/5,5/3,4/6,{16}3,2,{8}1,1/8,
{16}7,6,{8}5,4,6,7/3b,8,1/5b,2,
3/7b,4,5/1b,6,{16}8,7,8,7,1b,6,2,5,
3,4,3b,4,{8}3,4h[8:1]/5h[8:1],{16},,8b/1b,8b/1b,2b/7b,6b/3b,{8}5z1[8:1]/4q8[8:1],
{16}3,6,{8}5/4,,,4bh[4:1],3,2h[4:1],1,
8h[4:1],7,{4}6h[2:1],,5v2[8:1],
5v8[8:1],5,{8}2bh[4:1],B1,8h[4:1],B7,
6h[4:1],B5,{4}4h[2:1],,3v8[8:1],
3,{8}5,4,{2}3h[2:1],
{8}6,5,,4bh[8:9],{24},,,,,,{12}8,7,6,
8,1,2,8,7,6,{2}5h[2:1],
{8},6/3,,7/2,{16},,1,8,{8}1,3/6,
{16}2,8,2,7,3>3<3b[1:2]*V57V13V17V53b[2.7948##2.1762],7,,,{2}3bxh[4:15],
,,,,,,,7h[4:1]/4h[4:1],
6h[4:1]/3h[4:1],5h[4:1]/2h[4:1],
4h[4:1]/1h[4:1],{8}2b/1b,{16}3,4,{8}3,1/2,
{16}3,4,{8}3,2h[4:1],1h[8:1],,7/8,6/5,4<7[4:1]/3<6[4:1],
{2}2/1,{8}8b/1b,{16}6,5,{8}7,1/8,
{16}3,4,{8}2,8h[4:1],1h[8:1],,3/2,4/5,6>3[4:1]/7<4[4:1],
{2}8/1,Ch[4:7]/2-6[2.1762##0.1523],
E2/B1/E1,{4}E3/B3/E4,E2/B2/E3,
2bx-6b[8:1],2b,{8}2/8,2/8,{16}3,4,{8}5,
7/1,7/1,{16}6,5,4,3bxh,{8}2/6,2/6,{16}1,8,{8}1,
8bxh/1-5[16:1],2,1bxh/8-4[16:1],7,1,1,{16}2,3,{8}4,
6/4,6/4,{16}7,6,5,4bxh,{8}2/5,6/3,{16}4,5,{8}4,
5bxh/3-7[16:1],4,3bxh/5-1[16:1],5,4,2,{16}3,4,{8}5,
7/8,8/7,{16}6,5,{8}4,4/3,6/2,{16}3,7,3,7,
{8}8/1bxh,{16}E8,C,{8}B4,3,{16}4bxp8b[8:1],7,6,5,{4}4,
{16}5bxp1b[8:1],2,3,4,{8}5,8bh[8:3],,,7h[16:1],6h[16:1],
5h[16:1],{24}4,3,2,1,8,7,6,{12}5,{8}3/4,5/2,{16}3,4,{8}3,
7/4,4/7,{16}5,4,6,3,{8}4/6,7/2,{16}2,1,7,8,
{8}1b-5[8:1],8b-4[8:1],1,8,,8/3,{16}2,1,{8}2,
6/1,1/6,{16}8,1,7,2,{8}1/7,6/3,{16}3,4,6,5,
{8}4b-8[8:1],5b-1[8:1],4,5,,7/2,{16}3,7,{8}4,
6/3,5/2,{16}8,7,8,7,{8}8/6,4/2,{16}1,3,1,3,
{8}1/8,{16}1,2,3,4,,,6b,5b,6b,7b,{8}6b,{16}3b,4b,
3b,2b,{8}3b,,8b/1b,{16}1bx,1bx,1bx,1bx,{8}1bx,8b,
{4}7bw3b[8:1],7b,{2}5bxh[4:7],
B6/B7/E7,B2/B3/E3,
Ch[4:5],4bxh[4:3],
{16},,,,,,,,1bx,8bx,1bx,8bx,2bx,7bx,2bx,7bx,
3bx,6bx,3bx,6bx,,,,,{2}6bh[4:1]/B2/B3/E3,
3bh[4:1]/B7/B6/E7,5bh[4:1]/E1/B8/B1,
1bh[4:1]/B4/E5/B5,{8}8/6,{16}1,2/5,{8}3,4/2,
{16}5,6,{8}7,6/3,5h/4h,{16}3,4,2,6,5,7,{48},,,,,,{24}1/8h[2:1],
2,3,4,5,6,7bx,1,2,3,4,5,6,7bx,{96},,,,,,,,,,,,,,,,{32}8b/1b,7/2,6/3,5/4,,,,,6/4,
3,{16}2,8,2,{8}8,7/1,4/5,7/3,{32}8bx,7,6h/2h,3,{8}4bx,
8b-4b[16:1],2bv5b[16:1],8b,2b,7/3,5/4,{16}6h,7,8h/4h,3,
{8}2h/7h,5/4,{32}1,2,3,4,8,7,6,5,{8}3/4,5/4,{24}6,7,8h/3h,2,{12}1,
{8}8bv5b[24:1],4bv1b[24:1],8b,4b,{16}2bxh,8bxh,2bxh,8bxh,{8}2bxh,{16}1bxh,1bxh,
{8}1bxh,{16}2/7,6,3/5,,,8bxh,7bxh,8bxh,7bxh,8bxh,7bxh,6bxh,{8}5bxh,
{16}3,1,2,5,{8}8,6,{16}4bh[16:3],,,6b,{8}7b,2b,
4b/6bh[8:1],{16}2b,8b,{4}7bh[8:1]/4h[8:1],{24}4b/8b,1/5,2/6,3/7,8,1,2b,3,4/8,5/1,6/2,7/3,
4b,5,6,7,8/4,1/5,6b/2b,3/7,8,1,2,3,4b/8b,5/1,6/2,7h[4:3]/3h[4:3],,,,,,,,,,,,,,,,,,,,E3/E7,
E2/E6,E1/E5,,,,,{4}7/5,
4/2,8h[8:1]/1h[8:1],{16}3b,7,4,6,3b,5,2,8,
4b,6,3,5,1b,8,4,6,3b,5,2,7,4b,5,2,1,
3b,7,8,6,4b,5,2,6,1bh,2x,3x/8bh,7x,6x/2bh,3x,4x/7bh,6x,
5x/4bh,3x,2x/5bh,6x,7x/3bh,2x,1x/6bh,7x,{32}8x/2bw6b[8:1],,,,,,,,,B2/B3/B1,Cf/B7/B5,E7/E6/B6,
E
