&title=SPOOKY BADBALL
&artist=打打だいず/Tanchiky
&first=0.04
&des=SIX SEVENFFON
&lv_5=14
&des_5=SIX SEVENFFON
&inote_5=
(197){4},{8},,,,,,6,
5,6,5,6,5,6,5,
{4}6>4[8:1],6,{2}3h[2:1],
{8}4,3,4,3,4,3,4,3,
{4}4h[2:1],3,2h[8:7],{8}B4,E6,
6x,6x,7x,7x,8,1,8,1,
{4}8h[4:3],B2/A2/E3,E4/B4/A4,B4/A4/E5,
5/7h[8:1],{16}5,6,{8}5,{4}7/4,{16}4,5,{8}4,
{4}6/3,{16}3,4,{8}3,5/2<7[8:1],4/3,{4}2/5,
6bh[4:1],{16}B6,B5,B4,E4,B6,B7,B8,E1,2x,3x,4x,5x,
1x,8x,7x,6x,1,2,3,4,8,7,6,5,{4}4/1-5b[8:1],
1b,{8}6,6h[8:1],{16}5x,4,3,2,5x,6,7,8,
2,3,4,5,8,7,6,5,4,3,2,1,{4}8-4[8:1],
8/3,{16}5,6,{8}7,{16}1,2,{8}3,{4}8h[8:1]/3h[8:1],
8h[8:1]/3h[8:1],{16}3,7,{8}3,{16}2,6,{8}2,5,3,
{1}4>7[4:3],
{4}1b-3[8:1],1-5[8:1],1b>4[8:1],1/6,
6h[8:1]/B4f,3h[8:1]/B5f,2h[8:1]/B6f,1h[8:1]/B7f,
8h[8:1]/Cf,7h[8:1]/B2f,7h[8:1]/B4f,6h[8:1]/5h[8:1],
7/4>2[8:1],{8}4/7,8,{4}8q4[8:1],8/1-5[8:1],
{8}1b,4x,4,{16}3,4,{8}3,2/5,1,6/3,
7<5[8:1],{16}2,2,{4}7-1[8:1],{8}7/2,3,{4}3h[8:1],
{16}8,2,8,2,{8}8,{16}3,7,{8}4h[8:1],6h[8:1],4,5b,
{4}6/3>1[8:1],{8}3<5[8:1],{16}7,7,{8}3-8[8:1],7,3/6>4[8:1],6,
6/1,2,3>8[8:1],4,5,6,{4}7<4[8:1],
7/1>4[8:1],1/5-8[8:1],5/3-7[8:1],3/6-2[8:1],
{2}6/4h[4:1],{16}1,8,7,6,2,1,8,7,
{4}6/1h[4:1],4,{16}4,8,4,8,3,7,3,7,
2,1,8,7,6,5,4,3,2/8,7,6,5,4,3,2,1,
{4}8/3v8[8:1],3/7<5[8:1],7/1>3[8:1],1/4-8[8:1],
4,1/4xh[2:1],2,3,
{8}4/5,{16}6,5,{8}6,4/7,3,{16}2x,8,{8}1h[4:1],7,
6h[2:1],2,3,3,{16}4b,5,6,7,8,1,2,3,
{4}4/7<4[8:1],7/3-8[8:1],3-6[8:1],{8}3x/1x,1x,
2/5,2/5,3/6,3/6,{4}4-8[8:1]/7-3[8:1],7b/4b,
{16}1,2,{8}1,{16}1,2,{8}1,{16}3,8,{8}3,{16}3,8,{8}3,
{4}3h[4:1],7h[2:1],4<6[8:1],4,
{16}7,8,{8}7,{16}7,8,{8}7,{16}1,6,{8}1,{16}5,2,{8}6,
{4}3-8[8:1],3/6<1[8:1],6/2-5[8:1],2/8,
{16}7,6,{8}5,{16}8,7,{8}6,{16}1,8,{8}7,{16}2,3,{8}4,
{4}1/8-4[8:1],2v5[8:1]/8v5[8:1],8/2,3b/7b,
8/2,{16}1,1,{8}1,{4}2/8,{16}2/7,3,{8}4,
{4}5/8,{16}7/2,6,{8}5,4/1-5[8:1],1,8<6[8:1],8,
{4}8/4,{16}4,3,2,1,{4}8>3[8:1],{16}4,5,6,7,
{4}8<5[8:1],{16}4,3,2,1,8,7,6,5,{4}4-8[8:1]/8-4[8:1],
{2}8b/4>6[2:3],{8}5,5,,,5,
5,,,{2}6>3[2:1],
{4}3>8[2:1],C,8,7,
7/1,{16}8,8,8,8,{8}8v5[8:1]*v3[8:1],7/1,{4}8,
{16},,,,,,,,,,,,,,6,5,
4,3,2,1,{24}2x/8x,7x/3x,4x/6x,5,,,7bx/1bx,6bx/2bx,5bx/3bx,4,,,{4}8x/2x,
{8}7/1-5[8:1],1,7-4[8:1],7,3,3-8[8:1],,3/7,
{16},,6,5,{8}7,{16}3,4,{8}2,{16}6,5,{4}8-4[8:1],
{8}8/1h[2:1],,,5,5,,,4/2,
{4}2/4h[4:1],{8}C,8/6,6h[4:1]/8h[4:1],,,7/1,
{4}2v5[8:1],2b/1b,7v4[8:1],7b/8b,
{16}1x,2,{8}3,{16}5x,6,{8}7,{16}4,3,{8}2,{16}8,7,{8}6,
4>2[8:1],{16}5,5,{4}4-8[8:1],{8}4/1,1h[8:1],{16},,8x,1,
{4}7-3[8:1],7/8-4[8:1],8/1-5[8:1],1/2,
{8}2,{16}2,3,{8}4,4,8-4[8:1],8,1-3[8:1],1,
5-7[8:1],5,{4}4>1[8:1],{16}4/8,7,6,5,4,3,2,1,
{8}8>2[8:1],{16}4,4,{8}8<6[8:1],3,8,3h[8:1],{16},,4,3,
{4}3<6[8:1],3/7-1[8:1],{8}7-5[8:1],3,{4}7,
6/1v6[8:1],1/5>3[8:1],5/7>1[8:1],7/2-6[8:1],
2/8-4[8:1],8/5-2[8:1],5/8<5[8:1],{24}1,2,3,4,{48},,,,{16}B5,
B6,{8}B7,{16}B4,B3,{8}B2,{16}5,6,{8}7,{16}4,3,{8}2,
{16}6,7,{8}8,3>8[8:1],3,7,{16}7,6,{8}5,1,
5v8[8:1],5,4-1[8:1],4,7<5[8:1],7,2-4[8:1],2,
7,{16}7,6,{8}5,5,4/3,2,4/3,5,
{16}3,2,{8}1,{16}5,6,{8}7,{16}2,3,{8}4,{16}8,7,{8}6,
{16}3,4,{8}5,{16}7,6,{8}5,{16}3,2,{8}1,{4}8/7,
{8}7/4,{16}5,5,{8}6,4/7,6,5/2,3,3/8,
{16},,2,2,{8}1,8/3,7-3[8:1],6/4,{4}7/3,
{8}5/2,{16}4,4,{8}3,2/5,2,6/1>3[8:1],,1/6,
{16},,4,5,{8}3/6,3/6,{16}4bh[16:1]/7bh[16:1],,,8bh[16:1]/2bh[16:1],,,{8}3b/5bh[8:13],
{1}3v5<8>3[2:7],
,5h[1:1],
{8},,,,,,,,5,
4,5,4,5,4,5,4,
{4}5h[2:1],3>1[8:1],{2}3,
{4}7/1h[4:1],{8}8,7/5,,1,{4}8/2,
{8},3/5,4,5,4/6,5,{4}6<8[8:1],
{8}6/3,3-6[8:1],,1,{4}1p5[8:1],{8}2,2>4[8:1],
,2/6,{4}6-8[8:1],6-4[8:1]/3-1[8:1],3b/6b,
{1}8bh[8:7],
{24},,,,,,8,1,2,3,,,8b-4[8:1],7,6,5,,,{4}8b-5[8:1]*-3[8:1],
8,6/2,{8}1-3[8:1],1,1/7-5[8:1],7,
{16},,3,4,{8}2,{16}5,4,{8}6,{16}2,1,{4}3h[4:1],
8-4V61[2:1],{8}8/3,3,2,2,{16}2,3,{8}4,
4x-7<5-2[2:1],4x,1,1,8,8,{16}8,7,{8}6,
{6}6b,{12}2,4,,6,8,2,4,6,1,7,
{8}1>4[8:1],8,7,6,{4}5<8[8:1],5/4,
{8}7/3,{16}2,1,{8}2,3/8<5[8:1],7x,8/4,{16},,3,4,
{8}3,2/5,1,8,{4}7<4[8:1],{24}7/3,2,1,8,,,{8}7x/3x,
{16}7b/3b,8/4,5/1,6/2,7/3,8,1,2,3,4,5,6,{8}7/1,
2,3/6,5,4/3,{16}2,5,{8}2,{16}6,1,6,1,
{8}7<5[8:1],{16}4,4,{8}7-1[8:1],2,7/2,3h[8:1],{16},,3,4,
{4}2-6[8:1],2/1-5[8:1],1/8-4[8:1],{16}3/8,2,{8}1,
1bx-3[8:1],1,5b-8[8:1],5,4b-1[8:1],4,7b-2[8:1],7,
3b-6[8:1],3,{4}8<5[8:1],8b/1>4[8:1],1b/7b,
{16}6,5,{8}6,{16}6,5,{8}6,{16}6,5,{8}6,{16}7,8,{8}7,
{16}7,8,{8}7,{16}7,8,{8}7,{16}1-5b[8:1],2,3,4,{4}5/1bx,
{16}2,1,{8}2,{16}2,1,{8}2,{16}2,1,{8}2,{16}3,4,{8}3,
{16}3,4,{8}3,{16}5,4,{8}6,{16}6,5,{8}6,{4}6w2b[8:1],
6b,{16}8b,4b,8b,4b,7b,3b,7,6,{4}5bw1b[8:1],
5b,{8}3b/7b,7b/3b,6b/4b,4b/6bh[8:1],{16}5b-1b[8:1],4,3,2,
{1}1/5v7-1b[4:3],
{16}2,3,4,5,6,7,8,1,{24}2/8x,3x/7x,4x/6x,5x,,,,,,,,,5b/4b,
6b/3b,2b/7b,1pp5[8:9]/8<5[8:9],{1},{4},,{16},{48},{8}8b-4b[8:1],
{16}7,1,
8,Cf,
E
