&title=黎明スケッチブック
&artist=アメツチ絵日記
&first=-0.13
&des=PiraTom
&des_5=PiraTom
&lv_5=14+
&inote_5=(238){4},,,6/3,
{8}6,5,4,3,{4}4,5,
4,3,{8}6,4,5,3,
5,4,6,3,4,5,{4}6/3,
{8}6,4,5,3,{4}6,5,
3,5,{8}4,6,3,5,
{12}2,3,4,1,2,3,8,1,2,3/7b,{24},,,,{8}5/3,
4,5,3,{4}2/5-8[8:1],5/2-6[8:1],
2/1,7/3,{8}4/6,5,4,6,
4,5,5,4,6,6,4/2,3,
3,7/5,6,6,3/1,2,2,8/6,
7,7,{4}5/4qq1[2:1],,,{2}8<5[16:3],
{16}8,7,6,5,{4}8b,
{16}3,5,3,5,2,5,2,5,{4}2,{16}7,4,7,4,
6,4,6,4,{4}6,{16}2,5,2,5,3,5,3,5,
2,1,8,7,6,5,4,3,8,7,6,5,{4}1,
{8}5,5,3,3,{16}6,2,6,2,7,3,7,3,
{8}8,4,{16}7,6,5,4,3,2,1,8,7,6,5,4,
{24}2,3,4,5,6,7,8,1,2,3,4,5,6,7,8,1,2,3,{4}5b/4<4[8:19],
,,,,,E5,
,,C,
,,5/6h[4:3],
,,{2}5h[4:3],
{4},4h[4:3],,,3h[2:1],
,,8b/1<1[8:19],
,,,,,E1,
,,C,
,,5/7h[4:3],
,,{2}6h[4:3],
{4},5h[4:3],,,4,
4,4,2b/7b,
{8}2/6,3,{4}2/5,2/8-4[8:1],2,
2,2/5,{8}3/6,4,{4}7/5,
7/5>2[8:1],7,7,{8}6/2,5,
4,3/7,4,5,{4}6-2[8:1],4,
4,3>8[8:1],{8},7<4[8:1],,,{4}Ch[2:1],
,,E1/B8/B1,
,,{2}E7/B7/B2/E3,
{4},E6/E4,,,E5,
{8},,,,3/7b,6,
6,2b/5,3,3,4b/6b,5,5,2b/4b,
3,3,{4}5pp8[2:1],4,4,
4,3/7,6/2,1pp4[2:1],
5,5,6<1[4:1],4,
5,2bxh[4:3]/6bh[4:5],,,,,1,
{24}8b-3[8:1],7,6,5,,,{4}8-5[8:1],
8,1<6[8:1],1>4[8:1],
1,8,{8}7/4,6,5/3,2,
{4}4h[4:1],2,5/3,1>5[4:1],
5<1[4:1],1>5[4:1],5<1[4:1],1,
5,{16}7,6,5,4,1,2,3,4,8,7,6,5,
2,4,2,4,1,5,1,5,{4}1>4[8:1],{24}5/1-5[8:1],6,7,8,,,{4}1>4[8:1],
1,8>3[8:1],8<5[8:1],
8,{24}1,2,3,4,{12}5,{24},,,8/2h[8:1],7,6,5,4,,,,,1/7h[8:1],
2,3,4,{6}5,{24},6,5,4,3,2,1,8,7,6,{4}5-2-4-8[8:3],
1,1-7-3-5[2:1],E6,E2,
8,{16}1,2,3,4,8,1,2,3,6,7,8,1,
3,4,3,4,2,5,2,5,{24}E1,E8,E7,E6,E5,E4,{4}2x-6[4:1],
6-2[4:1],2<7[4:1],7-3[4:1],3<6[4:1],
6,8-5[4:1],5-1[4:1],1-4[4:1],
4,2,8,{16}2b,6,2,6,
2,6,2,6,1x,5,1,5,1,5,1,5,8x,4,8,4,
8-4[8:1],4,8,4,{4}8b<7<6>5>4>3>2<1b[4:3],,,,,,1b/8b,
{8},7b/2b,,,6b/3b,,,5b/4b,
,,{4}6h[2:1],3,3,
5s1[4:1]/4z8[4:1],,,3h[2:1],
5,4,4h[2:1],3,
5,5h[4:1],{8}6,4,{4}6h[4:1],
{8}4,7,5,7,5,6,4,6,
3,5,4,4,6,5,6,3,
4,2,{4}4/3h[4:1],{8},4h[4:1],,,5h[4:1],
,,6h[4:1],,,6b,5,
4,3,4,5,3,4,5,6,
5,4,{12}7,6,5,2,3,4,8,7,6,
1,2,3,6h[4:1],{24},{8}5,,7,{4}3h[4:1],
{8}5,4h[4:1],{4}7,5h[4:1],{8}2,6h[4:1],
{4}4,{8}3,4,5,6,5,4,
{4}6/3,7/2,1/8,{16}6,5,6,7,
6,5,{8}6,{16}3,4,3,2,3,4,{8}3,6/4,6,
6/5,6,{12}7,5,7,4,6,4,{48}5,,,6,,,{16}7,8,
{4}1/2,{16}1,2,3,4,{4}5/6,{8}5/3,{16}4,3,
{8}5,4,6,2,8,4,{16}8,7,6,5,
{8}1,1,{24}D8f,B8,B2,D3,,,D7f,B6,B4,D4,,,D1f,B8,B6,D6,,,D2f,
B2,B4,D5,{48},,,,{16}8,7,6,5,{4}4/3,1b,
{8}2,5,1,6,3,7,{16}4,5,6,7,
8,1,2,3,{12}7,4,4,5,4,5,2,4,3,
7,8,6,4,4,5,{4}2,{8}6/4,4,
4/5,4,4/3,4,4/2,1,8/4,7/3,
2/6,1,{12}6,5,6,3,5,3,4,5,6,
{24}7x,8x,1x,2x,3x,4x,5x,6x,7x,8x,1x,2x,3x,4x,5x,6x,7x,8x,{4}1b-5[1:5],
{1},,,,,{2},{4}8<5[8:1],
{24}4/8b-4[8:1],3,2,1,,,{4}8<5[8:1],
8,1<6[8:1],1>4[8:1],
1,{24}8b,7,6,5,{12}4,{24},,,1b/7,2,3,7/4,5,,,,,8b/2,
7,6,5/2,{6}4,{24},3,4,5,6,7,8,1,2,3,{4}4-7-5-1[8:3],
8,8-2-6-4[2:1],E4,E8,
1,{16}1b,2,3,4,7b,8,1,2,5b,6,7,8,
3b,4,5,6,1b/7x,2,3,4,{4}8/5x,1>4[8:1],
1-6[8:1],1-4[8:1],1<6[8:1],1-5[8:1],
1,8<5[8:1],8-3[8:1],8-5[8:1],
8>3[8:1],8,8,{16}1b,8,1,8,
1,8,1,8,1x,8,1,8,1,8,1,8,1x,8,1,8,
1-5[8:1],8,1,8,{4}1b>2>3<4<5<6<7>8b[4:3],{8},,,,,,,,,,3/1,
2,
2/1,3,3/8,3,4/8,7,7/3,6,
2/6,2,5/1,6,2/8,3,7/4,4,
3/6,5,6/4,3,6/1,7,1b/3b,2,
2,8b/6b,7,7,2b/4b,3,3,7b/5b,
6,6,{4}5/1h[2:1],5,5h[1:1],
{8}1,1,1,1,1,1,{4}1bs5[4:11]*V73[1:2],
E
