&title=まだまだ続くよ
&artist=feat. 式狼縁, GUMI
&first=-0.07999999
&des=重太
&des_1=重太
&des_2=重太
&des_3=重太
&des_4=重太
&lv_5=13+
&des_5=重太
&inote_5=(200)
{1},
{16}2xV86[4:4],3,4h[8:14],,,,,,
{4},,,,,
{8},Ch[4:1],,2h[8:1],,2h[8:1],,3h[8:1],,3h[8:1],,4h[8:1],,4h[8:1],,5-1[8:1],,,,2h[8:1],,2h[8:1],,3h[8:1],,3h[8:1],,4h[8:1],,4h[8:1],,5v8[8:1],,,,1h[8:1],,1h[8:1],,7h[8:1],,7h[8:1],,5h[8:1],,5h[8:1],,6-1[8:1],,,,,2xV86[8:2],2xh[8:3],,,,,2x<6q4[4:2],2xh[8:3],,,,,,,,
5,4,5,4,6,5,6,5,7,8,7,8,7<4[8:2],,,,3,3,4,4,2,2qq5[4:3],,,7,,7,,6,,6,,,7,7,5,5,6,6<1[4:1],4,4qq5[4:2],,4x,,E8,,E7,,5h[8:4]/6h[8:6],,,,,,,,5<4[4:2]`4>5[4:2],,,,,,,,6,5,6,6,4-2[8:1],4,7,7,,8,1,7,7,1-3[8:1],1,,5,4,6,6,2-5[8:1],2,6,,,7xV15[4:2]`4xV26[4:2],7x`4x,,,,,,E7,,E1,,E3,,E5,,6x<1[4:1],,1x>4[4:1],,4x<7[4:1],,7xV13[4:1],,4x,,4xh[8:2],,6h[4:1],,8h[4:1],,7-3[8:1],,1-5[8:1],,,,,,6b<2[4:1],,2V86[4:1],,4,4,,3-5[8:1],,3/7qq8[8:3],,2,2h[8:2],,,,1b>5[4:1],,5V31[8:2],,7,7,,6-4[8:1],,6/2pp1[8:3],,7,7h[8:2],,,,7<4q8[4:2],,1,1,1,,2,3,4>1q5[4:2],,7,7,7,,6,,7,7,5,6,6,4,5,5,3,,4-6[8:1],,2-8[8:1],,,,7b-4[8:1],,8>5[4:1],,6,6,,7xpp7[8:2],,7xqq6[4:1],,3,3h[4:1],,,,2b-5[8:1],,1<4[4:1],,3,3,,2xqq2[4:1],,2xpp3[4:1],,6,6h[4:1],,,,7b/5b,,8-4[8:1],8,3-1[8:1],3,5,5,6-4[8:1],,1-5[8:1],,6-1[8:1],,4-8[8:1],,7b,6,5,1,2,3,8,7,6,2<5[4:2],3,4,,,,,E1h[4:4],,,,7-5[8:1],,,,E7,,C,,E3,,,,6-8[8:1],6,5,4,3-1[8:1],3,4,5,6-4[8:1],6,2-4[8:1],2,7-5[8:1],7,3-5[8:1],3,7>1[8:1],7,6,5,3>1[8:1],3,4,5,6-4[8:1],6,2-8[8:1],2,6>4[8:1],6,2<8[8:1],2,7-5[8:1],7,8,1,2-4[8:1],2,1,8,7-5[8:1],7,3-5[8:1],3,7-5[8:1],7,3-5[8:1],3,7-4[8:1],7,8,1,2qq5[4:3],2,1,8,,,,,,E7/B6/E6,E3/E4/B3,,5V73[4:2],,,,,,,,4V26[4:2],,,,,,,,8q1[4:2],,,,,,,,,E3,E7,E4,E6,,C,,7h[4:1],,6h[4:1],,5h[4:1],,4h[4:1],,3h[4:1],,2h[4:1],,1h[4:1],,8h[8:2],,6<2[4:1],,2>6[4:1],,6V82[4:1],,2z6[4:2],,,,,,,,,,
{16}2,3,4h[8:13],,,,,,,,,,,,,,7,6,5h[8:5],,,,,,,,,,,,,,
{8}6b-1[8:1],,6/2V46[4:1],,8,7,,7-5[8:1],,7/8-4[8:1],,78,7,,8,,2V46[4:1],,7,8,1V75[4:1],,4,3,2V83[4:1],,5,6,7,,,84,8h[4:1]/4,4h[8:1],,7h[8:2],5h[8:1],,3h[8:2],4h[8:1],,3p2[4:2],,5,6,7,8,,1b-6[8:1],,1/2V48[4:1],,7,7,,6-4[8:1],,2-8[8:1]/6,,27,7h[4:1],,,,8b-3[8:1],,7V53[4:1]/8,,2,1,,2-4[8:1],,2/1-5[8:1],,12,2,,1,,7b/3b,,6-4[8:1],6,2-8[8:1],2,7V53[4:1],7,3V17[4:1],,7<3[4:1],,3>7[4:1],,7,,3h[4:1],5h[8:1],,6h[4:1],4h[8:1],,7h[8:2],5h[8:1],,7p6[4:2],,4,3,2,1,,E1h[8:8],,7<5[8:1],,,,,,E7,,C,,E3,,,,5xpp5[4:1],,5xqq5[8:2]/2,,2h[4:1],,,,2-4[8:1],2,8-6[8:1],8,2q6[8:1],2,,7,8xpp8[8:2],,4/8xqq8[4:1],,4h[8:2],,,3-1[8:1],3,5-7[8:1],5,4-8[8:1],4,5h[8:2],,1,,2-5[8:1],1,8-4[8:1],1,2-5[8:1]*-6[8:1],1,,,7-4[8:1],,7/8-3[8:1],,5<3>5[4:4],5,,4h[4:3],,,,,,,,,3,24,,5-1[8:1]`1-4[8:1],,,,7-4[8:1],8,1-5[8:1],8,7-4[8:1],8,1>4[8:1],8,1x/5x,,6,6-8[8:1],,6x-4[8:1]/2,,6x/2,,3,3-8[8:1],4,5-1[8:1],4,3-8[8:1],4,7x/3x,,6,6<8[8:1],,2/6x>4[8:1],,2/6x,,3,3h[4:1],,5,5h[4:1],,1,1h[8:2],,7,7h[8:2],,5-2[8:1],5-8[8:1],,,,,
{16}1h[8:2],,E8,E7,E6,,2h[8:2],,B7,B6,B5,,3h[8:2],,E7,E6,E5,,4x-8[8:2],,,,,,,,2,3,4-1[8:3],,,,,,,,,,,,,,7,6,5pp8[8:4],,,,,,,,,,2-4[8:1],,,,,,,,,,,,74,,6,5,6,,4,,53,,4,5,4,,6,,71,,8,1,8,,2,,3h[4:1]/1s5[4:1],,,,,,,,2,,3,4,3,,54,,6,,7,5,6,,54,,3,,3,4,3,,4,,5s1[8:2]/2h[4:1],,,,,,,,2,,8,1,8,,7,,16,,5,4,5,,3,,24,,5,4,5,,5,,5s1[8:2]/4h[8:2],,,,,,,,3,,1,2,1,,83,,,,
{8}E8,E1,E2,,Ch[8:1],
E
