&title=Love East
&artist=㚁Records
&first=-1.063
&des=chrt
&clock_count=4
&lv_2=11
&des_2=chrt Respect for maimai Green/Green Plus
&inote_2=(168){8},,,,,,,,,,,,,,6b-3[2:3],,,,,,,,,,,,,,,,2b-7[2:3],,,,,,,,,,,,,,,,5b-1[2:1],,,,3,7,,,8b-4[2:1],,,,2,6,,,4q6[2:1],,,3,6<2[4:1],,3h[4:1],,,3,5b-1[8:1]/4b-8[8:1],,5b/4b,,,,2h[4:1],,3h[8:1],4h[8:1],5h[8:1],6h[8:1],7h[8:1],8h[8:1],1h[4:1],8,8>4[8:1],4b,5,6,7-3[8:1],,7b,,,,5<8[8:1],4,3,2q4[4:1],1h[2:1],,,,,,8-4[8:1],4-8[8:1],,,,,3,7,2,6,1-3[8:1],1,5-7[8:1],5,,,84,73,6h[2:1]/2h[2:1],,,,,,73,84,5h[4:3]/1b,,,,,,,,4,,56,6,5<8[8:1]/6,1,2,3<6[8:1],2,1,8,7p2[8:1],7<3[8:1],7,,,1,,78,12,8v3[8:1],8p4[8:1],8<5[8:1],,,,2,1,,6,7,,8,,12,1,2/1>4[8:1],5,6,7>2[8:1],5,4,3q7[8:1],3>8[8:1],,,,,6,,87,,2-5[8:1],5-2[8:1],2-7[8:1],7-2[8:1],7-5[8:1],,,,1h[8:1],,,,6,,78,7,7/8<5[8:1],4,3,2>5[8:1],3,2,6,7-4[8:1],7-2[8:1],,,,6,,87,12,1<6[8:1],1>4[8:1],1,,5,5,4,5h[8:1],4,54,63,,8-5[8:1]/1-4[8:1],,8b/1b,,63,72,1>5[8:1],8,7-3[8:1],6,7,4-1[8:1],,,,,72,,63,,4-1[8:1],4,5-8[8:1],5,2h[4:3],,,,,,,,8,7,6,5,4<8[8:1],,8,1,2,3,4,5>1[8:1],1,8,7,6<2[8:1],2,3,4,5>2[8:1],5<8[8:1],,,,1>8[8:3],,,,,,3,7,1-5[4:1],,,,,64,64,73,2-6[8:1],1-5[8:1],8-4[8:1],,,,7,3,7h[2:1],,,,,,1,2,2,,3,,4,5,6,6,5,4,4,32,12,8-4[4:1]/1,81,8h[4:3],,,,,,,3,7,2h[4:1],,,,3h[4:1],,,,4h[4:1],,,,5h[4:1],,,,6,7,8,1,2,3,4,5,{16}4,3,2,1,8,7,6,5,4,3,2,1,8,,{8},4,{16}2,,5-1[8:1],6,,,5,,,,7,,,,2,3,,3,4,,5h[4:1],,6h[4:1],,,,5<4[2:1],,,,5h[2:1],,,,,,,,,,,,3,,,,4,,,,5,,6,,5b,4b,3b,2b,1b,,,,6,,8,,3-7[8:1],4,,,3,,,,5,,,,8,1,,1,2,,3h[4:1],,4h[4:1],,,,3>5[2:1],,,,3h[4:1],,,,,,4>6[4:1],,4h[2:1],,,,,,,,5,,4,,3h[8:1],,,,4b,5b,6b,7b,8b,,,,2,1,3,8,2,,,,5,6,4,7,5,,,,7-3[8:1],,8-4[8:1],,1-5[8:1],,,,,,,,,,,,3,4,2,5,3,,,,8,7,1,6,8,,87,,3,4,2,5,1,6,8,,7h[4:1]/8h[4:1],,{8},,,8bp3[8:1]/7b<4[8:1],,8b/7b,,8bp3[8:1]/7b<4[8:1],,8b/7b,,2,1,8,7,,67,43,12,8bp3[8:1]/7b<4[8:1],,8b/7b,,8bp3[8:1]/7b<4[8:1],,8b/7b,,2,1,5,6,,43,12,65,8bp3[8:1]/7b<4[8:1],,8b/7b,,8bp3[8:1]/7b<4[8:1],,8b/7b,,2,2,5,5,,12,65,43,8bp3[8:1]/7b<4[8:1],,8b/7b,,8bp3[8:1]/7b<4[8:1],,8b/7b,,2,3,5,4,,12,65,87,{16}1,1,7,,3,,5,,7,,,,1,,5,6,5,6,5,,3,4,3,,8,,2,,4,,6h[8:17]/7-2[8:15],,,,{8},,,,,,,,,,,,,,,,,1,34,45,56,67,,2h[8:4]/3h[2:1],,,,,,,,1,,8b/4b,1b/5b,2b/6b,3b/7b,8b/4b,1b/5b,8-5[8:1],8,4-1[8:1],4,6,,7-3[8:1],7,,,,,,,1,3,5,7,1,,5v7[8:1],,1v3[8:1],,,,6,5,4,3,2,8>4[8:1],4,5,6,7<3[8:1],3,2,1,8-4[8:1],,8,,,5-7[8:1]/3-1[8:1],,53,,8-4[8:1],,8,,5b/3b,5b/3b,6b/2b,6b/2b,7h[4:1]/1h[4:1],,,,8,71,62,53,4-8[8:1],4,1-3[8:1],1,,,7,6,5h[4:1],,,,,,3,2,1h[4:1],,,,8b/7b,,{16},,,,1,1,7,,3,,5,,3,,,,8,,3,4,3,4,3,,6,5,6,,8,,2,,4,,6-3[8:7],,,,,,,,,,,,1b,,1b,,1b,,1b,
&lv_5=13
&des_5=chrt
&inote_5=(168)
{16},,,,
,,,,
,,,,
,,,,
{16},,,,
,,,,
,,,,
5bqq5pp5[2:3],,,,
{16},,,,
,,,,
,,,,
,,,,
{16},,,,
,,,,
,,,,
4bpp4qq4[2:3],,,,
{16},,,,
,,,,
,,,,
,,,,
{16},,,,
,,,,
,,,,
3h[8:2],,,,
{16}7-2[8:1],,,,
B3,,E4,,
,,,,
2h[4:1],,,,
{16}6-3[8:1],,,,
B2,,E2,,
,,,,
5bx<2b[2:3]/3bx<4q6b[2:3],,,,
{16},,,,
,,,,
,,,,
,,,,
{16},,,,
,,,,
,,,,
3xh[4:1],,,,
{16}5h[8:1],,4>6[8:2],,
4,,7x,,
6,,5x,,
5xh[8:1],,,,
{16}4,,3,,
2,,,,
B5/B4/E5/C/B6/B3/B2/B7/B8/B1,,,,
7<4[8:1]/3h[4:1],,,,
{16},,3,,
2q4[4:1],,,,
4x<4[2:1],,5x,,
6x,,,,
{16},,,,
,,,,
6-8-4[8:2],,3-1[8:1],,
6,,3,,
{16},,,,
3,,5,,
4,,6,,
5,,7,,
{16}Ch[8:1],,,,
B2/B3/E3,,,,
6h[8:1],,2h[8:1],,
6p4[8:2],,,,
{16},,,,
,,,,
5xqq5b[4:3]*pp5b[4:3],,3,,
5,,,,
{16},,,,
,,,,
,,,,
8,,,,
{16}4,,8,,
4<8[8:1],,8>4[8:1],,
4,,,,
7,,6,,
{16}5-3[8:1],,3-5[8:1],,
5-7[8:1],,,,
,,,,
4,,,,
{16}C/B8/B1,,,,
5/4x,,4xv2<6[2:1],,
4x/3x,,4x/3x,,
3xh[8:1],,,,
{16}3xh[8:1],,,,
5xh[8:1],,,,
5x/4x,,,,
8,,,,
{16}4,,7,,
6v7[8:1]/3v2[8:1],,63,,
63,,,,
1xq6[4:1],,8,,
{16}7,,6p2[4:1],,
,,7,,
8,,,,
7,,,,
{16}7,,,,
2-8[8:1],,8-5[8:1],,
2,,7,,
6,,4x>1[8:1]/7x,,
{16}3x,,4x,,
,,Ch[8:1],,
,,,,
8,,,,
{16}1,,7,,
2,,6,,
3,,5,,
4,,5,,
{16}6pp4[4:1]/3qq5[4:1],,6h[8:1]/3h[8:1],,
,,,,
,,,,
8x,,,,
{16}8,,1,,
7,,2,,
6,,3,,
5,,4,,
{16}5-8-6[8:2]/4-1-3[8:2],,45,,
45,,,,
,,,,
72,,,,
{16}63,,,,
8,,7,,
6,,5,,
3>6[8:2],,,,
{16}6v3[8:2]*>3[8:2],,,,
,,,,
,,,,
2,,,,
{16}1,,,,
1-5[8:1],,1,,
8-6[8:1],,8,,
4xh[4:3],,,,
{16},,,,
,,,,
,,,,
4,,3,,
{16}2,,1,,
8<4[4:1],,,,
1,,2,,
3>7[4:1],,3,,
{16}3,,4,,
5,,6,,
6>2<6[8:4],,6,,
3h[8:1],,,,
{16}4h[8:1],,,,
4,,,,
1-5[8:1],,8,,
1,,,,
{16},,,,
,,,,
1,,8,,
1h[2:1],,,,
{16},,,,
,,A8,,
A7,,A6,,
A5,,A4,,
{16}A3,,A2,,
A1,,,,
8>6[4:1],,1,,
8,,,,
{16},,,,
,,,,
2,,3,,
4-6-3-7-2-8[1:1],,,,
{16}4,,,,
5,,,,
6h[8:1],,,,
6h[8:1],,,,
{16}7h[8:1],,,,
1hx[8:1],,,,
8h[8:1],,1bh[2:1],,
,,,,
{16},,,,
,,1,,
2,,3,,
4<8[4:1],,,,
{16}8>4[4:1],,,,
4<8[4:1],,,,
8>4[4:1],,,,
4<8[4:1],,,,
{16}8>4[4:1],,,,
5h[4:1],,,,
,,,,
6,,7,,
{16}8,,1,,
2,,3,,
4,,5b,,
6,7,8,1,
{16}2,3,4,5,
6,7,8,1,
2,,,,
2x>4[8:1],,4<6[8:1],,
{16}6x<2[8:2],6x,,,
7,,,,
5h[8:1],,,,
3h[8:1],,,,
{16}7,7,,,
1bw5b[8:1],,,,
1b,,,,
3xh[4:1]/7,,,,
{16}7<2b[8:2],,,,
4xh[8:2],,,,
,,,,
3h[4:1],,,,
{16}1,,8,,
B3,B4,B5,B6,
Cf,,,,
1,,2,,
{16}3<6[8:1],,6qq3[8:3],,
6/3,,,,
,,7,,
6h[8:1],,,,
{16}3x,5,3,,
6xh[4:1],,,,
4,,3,,
2h[4:1],,,,
{16}7,,,,
7h[4:1],,,,
1,,,,
8h[8:1],,,,
{16}1,,8,,
7bx,6bx,5bx,4bx,
3bx,,,,
3-1[8:1],4,3,4,
{16}3,,,,
6-8[8:1],5,6,5,
6,,,,
4-1[8:1],,3,,
{16}8-5[8:1],,7,,
2bx,,,,
3,,,,
2-4[8:1],1,2,1,
{16}2,,,,
7-5[8:1],8,7,8,
7,,1,,
E1,,B8/B1,,
{16}C,,B5/B4,,
E5f,,,,
,,,,
6b-2b[8:1]/5b-1b[8:1],,,,
{16}5bx/6bx,,,,
6b-2b[8:1]/5b-1b[8:1],,,,5bx/6bx
,,,,
8x-5[8:1],,4,,
{16}3,,2,,
1,,6,,
8,,7,,
7bx-3b[8:1]/8bx-4b[8:1],,,,
{16}7bx/8bx,,,,
7b-3b[8:1]/8b-4b[8:1],,,,8bx/7bx
,,,,
5x,,5xv3>7[2:1]/4x,,
{16}56,,54,,
,,,,
,,,,
7bx-3b[8:1]/6b-2b[8:1],,,,
{16}7bx/6bx,,,,
7b-3b[8:1]/6b-2b[8:1],,,,7bx/6bx
,,,,
1x,,2xqq7[8:4]*<7[8:4],,
{16}3x,,2x,,
,,,,
,,,,
6bx-3b[8:1]/5b-2b[8:1],,,,
{16}6bx/5bx,,,,
6b-3b[8:1]/5b-2b[8:1],,,,6bx/5bx
,,,,
1x,,8>2[8:1],,
{16}7,,6<8[8:1],,
,,6/3<5[8:1],,
2,,3,,
1bh[16:1],,,,
{16}15,,48,,
73,,,,
6h[8:1],,,,
2bx,,4,5,
{16}6,7,8,1,
2-6b[8:1],,6bx-4b[8:1],,
2bz6s2b[1:2],,,,
,,,,
{16},,,,
,,,,
,,,,
,,,,
{16},,,,
,,,,
,,,,
6h[4:1],,,,
{16}3h[4:1],,,,
5h[8:1],,4h[8:1],,
5h[8:1],,4h[8:1],,
5h[2:1],,,,
{16},,,,
4h[2:1],,,,
,,,,
E6,,,,
{16}B3,,B6,,
B2,,B7,,
E2,,E8,,
1h[8:1]/8h[8:1],,,,
{16}7h[8:1]/2h[8:1],,,,
6h[8:1]/3h[8:1],,,,
5h[8:1]/4h[8:1],,,,
5h[2:1]/4>6[2:1],,,,
{16},,,,
,,,,
5,,6x<4[2:1],,
5,,6,,
{16}5,,,,
Ch[4:1],,,,
,,,,
3h[2:1],,,,
{16},,4h[4:1],,
,,3h[4:1],,
5h[4:1],,,,
2h[4:1],,6h[4:1],,
{16},,1h[4:1],,
7h[4:1],,,,
8h[8:1],,,,
7h[4:1],,,,
{16},,,,
1h[4:1],,,,
,,,,
5h[4:1],,,,
{16},,,,
3b/7b,,1b/5b,,
3b/7b,,1b/5b,,
7h[2:1]/3h[2:1],,,,
{16},,,,
,,3,,
7,,6,,
5-1[8:1],,5,,
{16}4-2[8:1],,4,,
8,,,,
8<4[4:1],,3,,
4>8[4:1],,,,
{16},,,,
,,,,
2>6[4:1],,7,,
6<2[4:1],,,,
{16},,,,
5bh[4:1],,,,
,,,,
2,6,5,6,
{16}2,6,5,6,
2b,,,,
3,,,,
4,5,6,7,
{16}8,1,2,3,
4pp4qq4[2:2],,,,
4/5h[8:1],,,,
7h[2:1],,,,
{16},,,,
,,8b,,
8b,,8b,,
8b,,
