&title=Please
&artist=R300K
&first=0
&des=Youmu@BREAK BEAT
&lv_5=14
&inote_5=(161)
{1},
{16},,,,,,,,3h[8:1]/6h[8:1],,,,2,7,2,7,1/8,,7,,1,,6,,1-5[8:1],5,,5,1,,4h[2:1],,3,,2,,1,,8,,1/5,,2/6,,3/7,,,,4/5,,6,,4,,7,,4-8[8:1],8,,8,4,,1h[2:1],,2,,3,,4,,5,,8/4,,3/7,,2/6,,,,1/8,,7,,1,,6,,1-5[8:1],5,,5,1,,6h[2:1],,7,,8,,1,,2,,
{48}3/5,,,,3,,5,,3,,,,3/5,,,,3,,,,3,,,,
{16}4/5,,6,,4,,7,,4-8[8:1],8,,8,4,,6,,4/5,,5,4,6,5,7,4,5,3,4,2,6h[8:1],,,,3,4,3,5,4h[4:1],,6,,6,5,6,4,5h[4:1],,3,,3,4,2,5,3h[4:1],,6,,6,5,7,4,6h[4:1],,3,,3,1,2,8,1h[4:1],,7,,6,8,7,1,8h[4:1],,2,,3,1,2,8,2h[4:1],,7,,6,8,7,1,7h[4:1],,2,,3,8,2,1,3,1,2,8,1,6,8,7,1,7,8,6,4,7,5,6,5,7,4,6,2,5,3,4,3,5,2,4,1,,2/8,,3/7,,4/6,,3/5,,2/6,,1-5[8:1]/7,,8,7,1,,,,3,4,2,6,5,7,4,5,,7,5,6,3,4,3,4,2b,4,3,4,3,,4/2,,5/3b,,6/4,,6,5,6,5,7b,5,6,5,6,,5/7,,4/6b,,3/5,,3,4,3,4,2b,4,3,4,3,,2/4,,3b/5,,4/6,,6,5,6,5,7b,5,6,5,7,,7,8,,6,5,,3,4,3,4,1b,4,3,5,3,5,4,5,2b,,5/3,,6,5,6,5,8b,5,6,4,6,4,5,4,7b,,4/6,,3,4,3,4,1b,4,3,5,3,5,4,5,2b,,5/4,,6,5,6,5,8b,5,6,4,6,7,8,,,4,3,2,1,6,2,2,6b,4,8,8,3,5,1,1,7b,,2/6,,8,3,7,7,3b,5,1,1,6,4,8,8,2b,,1/5,,1,5,3,3,7b,1,5,5,2,8,4,4,6b,,8/4,,8,4,6,6,2b,8,4,4,7,,7,8,,6,5,,3,4,2,2,5b,4,6,6,4,5,3,3,6b,5,7,7,2,1,3,3,8b,1,7,7,1,8,2,2,7b,8,6,6,4,,4,,5,,4,,5,,4,,5,4,5,4,5,,,,3,4,2,6,5,7,1,8,1s5[8:1]*-4[8:1],,,,
{8}1b,,7,,,1,7,,1,,7,,,1,7,,1,,,,7,,4,5,,,,4,5,6,7,8,1,,,4,4,,3,2,1,,,5,5,,1,2,3,,,,1,,7,8,1,2,3,4,1/5,6/2,7/3,8/4,1,,,5,6,7,3,2,1,,,7,7,,2,1,8,,,,3,,1,8,,,,5,5,4,3,2,
{16}1,,3,5,4,,6,,3,5,4,,3,,4,,5,,6,4,5,,3,,6,4,5,,4,,3,,
{8}5,5,6,6,7,7,8,8,
{16}1,1,2,2,3,3,4,4,5,5,6,6,
{4}7b,
{16}6,8h[8:1],,7,1h[8:1],,8,2h[8:1],,1,3h[8:1],,7,5,6,5,7,5h[8:1],,6,4h[8:1],,5,3h[8:1],,4,2h[8:1],,7,8,6,8,7,8h[8:1],,6,1h[8:1],,5,2h[8:1],,4,3h[8:1],,6,4,5,3,4,2h[8:1],,5,1h[8:1],,6,8,7,8,7,,7/8,,1/6,,2,4h[8:1],,3,5h[8:1],,4,6h[8:1],,5,7h[8:1],,2,1,4,8,3,1h[8:1],,2,8h[8:1],,1,7h[8:1],,8,6h[8:1],,3,4,1,5,3,4h[8:1],,2,5h[8:1],,1,6h[8:1],,8,7h[8:1],,3,5,4,6,5,7h[8:1],,4,8h[8:1],,2,,4,2h[8:1],,5,1h[8:1],,7,,
{16}3,1,1,2,8,8,1,7,7,8,6,6,2,5,3,4,2,4,4,3,5,5,4,6,6,5,7,7,2,8,3,1,2,1,1,3,8,8,4,7,7,5,6,6,3,5,4,6,5,7,7,4,8,8,3,1,2,1,2,,2/1,,8/3,,7,5,5,6,4,4,5,3,3,4,2,2,7,1,5,8,6,8,8,7,1,1,8,2,2,1,3,3,6,4,8,5,6,6,5,5,4,4,3,3,2,2,1,1,8,8,7,7,
{32}6,5,4,3,2,1,8,7,6,5,4,3,2,1,8,7,6,5,4,3,2,1,8,7,
{4}6/2b,
{16}3,4,2,5,1b,4,2,5,3,,2/4,,3b/5,,4/6,,6,5,7,4,8b,5,7,4,6,,7/5,,6b/4,,5/3,,3,4,2,5,1b,4,2,5,3,,3/5,,4b/6,,5/7,,8,,
{32}8,7/1,6/2,5/3,
{16}4b,,4,,4/3,,2,1,,3,4,,7,8,7,1,6b,2,5,3,7,1,7,2,6b,3,5,4,8,2,7,2,6b,3,5,4,1,2,8,2,7b,3,6,4,5,4,6,3,7b,2,8,1,6,3,7,2,8h[8:1]/1h[4:1],,,,,,
{32}8,7,6,5,1,2,3,4,2,3,4,5,8,7,6,5,7,6,5,4,
{4}2h[8:1],
{16}2,1,3,4,1b,4,2,5,3,,1/2,,3b/4,,6/5,,7,8,6,5,8b,5,7,4,6,,8/7,,6b/5,,3/4,,2,1,3,4,1b,4,2,5,3,,3/4,,5b/6,,8/7,,1,,
{32}1,2/8,3/7,4/6,
{16}5b,,5,,5/6,,7,8,,6,5,,3,1,2,1,4b,7,5,6,2,8,1,8,3b,6,4,5,1,7,1,8,3b,6,4,5,8,6,8,7,2b,5,3,4,
{32}3h[4:1],,,,1,8,7,6,5h[4:1],,,,8,1,2,3,4h[4:1],,,,2,1,8,7,6h[4:1],,,,7,8,1,2,3,,5,,2,,6,,4,,7,,2,,8,,7,6,5,4,3,2,1,8,2-6[12:1],3,4,5,6,7,8,1,
{4}2p8[4:3]/6bp4[4:3],,,,,E
