&title=RIP=RELEASE
&artist=minatoP/巡音ルカ
&first=0.15
&des_1=I Love You,and I Hate You.
&des_2=I Love You,and I Hate You.
&des_3=I Love You,and I Hate You.
&des_4=I Love You,and I Hate You.
&des_5=I Love You,and I Hate You.
&lv_5=13
&des_6=I Love You,and I Hate You.
&des_7=I Love You,and I Hate You.
&des=I Love You,and I Hate You.
&inote_5=(115)
{1},,
{16}3h[8:7],,4,,,5,,,2,,,8,,,6h[8:8],,,,1,,,7,,,5,,,4,,,2,,
{16}1h[8:7],,5,,,3,,,8,,,6,,,5h[8:8],,,,8,,,6,,,4,,,2,,,1,,
{16}1h[8:1]/7,,6h[16:3],,,4h[16:3],,,8h[16:3],,,5,,,4/6,,3/5h[8:1],,2h[16:3],,,8h[16:3],,,4h[16:3],,,6h[16:3],,,3,,
{16}2h[8:1]/5,,4h[16:3],,,1h[16:3],,,7h[16:3],,,5,,,3/6,,2h[8:1]/5,,4,,3,6,5,,7/4,,
{24}3,4,2,4-8[8:1],,,,,,
{16}1b/4,,2,,7,5,,3,5,,3,4,2,,8,,
{16}2/7,,3,,7,5,,3,5,,3,4,2,,8,,
{16}3/7,,4,,6,5,,4,5,,2,4,3,,7,,
{16}4/6,,5,,3,4,,,6/5,7,,4/3,2,,8,,
{16}1/7,,2,,7,5,,2,4,,3,5,1,,8,,
{16}2/7,,3,,7,5,,2,4,,3,5,1,,8,,
{16}3/7,,4,,6,5,,3,4,,1,5,3,,7,,
{16}4/6,,5,,2,4,,,3/5,4,6,5,8<5[8:4],,,,
{4}1h[8:1],1h[8:1],2h[8:1],3h[8:1],
{8}3/4,5,2,7h[8:1],4-1[8:1],,8<5[8:1]/4,,
{8}2/8,3,4,2,5,1-5[8:1],,1,
{16}7-4[8:1],,,,3/7,,,,3,4,,6,5,,4,,
{16}7/3,,5,,2,,7,,4-1[8:1]/8<5[8:1],,,,4/8,,,,
{16}1/5,,,4/3,,,8-4[8:1]/5,,,,8,,3,,5,,
{16}1h[8:1],,4,4h[8:1],,3,3h[8:1],,6,6h[8:1],,4,7,,3,,
{16}2>5[8:1],,,,2/8,,,,7,5,,2,4,,5,,
{8}6/3,4,7/5,4,6/3,4,7/5-8[8:1],4,
{8}3/5,2,7,1,8-4[8:1],,2-5[8:1]/8,,2/6,7,5,6,4,8-3[8:1],,8,
{8}4-8[8:1],,4/7,
{16},,7,1,,2,8,,3,,
{8}4/7,6,1,7,2-5[8:1]/8-4[8:1],,2/8,,
{16}4/6,,,2/5,,,1-5[8:1]/7,,,,1,,6,,4,,
{16}8h[8:1],,5,5h[8:1],,6,6h[8:1],,3,3h[8:1],,4,2,,1,,
{8}7-3[8:1],,1/7,,
{16}2,5,3,4,2,7,4,6,
{16}1b/8b,,2,1,2h[8:1],,4,,6,5,7,,1/8-4[8:1],,2,,1/8,,2,5,3,,6,,7,5,8,,1/7-4[8:1],,2,,1/7,,2,5,3,,7,5,,2,4,,3-1[8:1]/5,,4,,3/7,,6,2,4,,3,8,,4,7,5,6,,2,,
{16}1b/6b,,7,8,7h[8:1],,5,,3,4,2,,8/1-5[8:1],,2,,1/8,,6,4,7,,3,,2,4,1,,2-5[8:1]/8,,3,,2/8,,6,4,7,,3,4,1,5,3,,4/7,,6,,
{16}3/4,3,,5/6,6,,2/4,2,,5/7,7,,1-5[12:1],5,2,4,1b,,8,8,5-2[8:1],6h,3,8h,5-8[8:1],,7,,1-4[8:1]/5,,2,,4-7[8:1],,3,3,,2,,6,1,,7,5,8-4[12:1],4,6,5,8b,,1,1,4<7[8:1],2h,6,8h,4>1[8:1],,2,,4/8v5[8:1],,7,,5v2[8:1],,6,6,,7,,3,8,,2,4,1-5[12:1],6,3,4,1b,,8,8,5-2[8:1],6h,3,1h,5<8[8:1],,8,,1-4[8:1]/5,,2,,4bv7[8:1],,3,3,,2,,1,6,,2,,3/8,,4,,
{16}5/6,,7,7,,1,1,,2/8,,3,5,,2,,6,5/7,,8,,2,1,,7,8,,3,1,,6,8,,3b/4,2,,5/6b,7,,3b/4,1,,5/6b,8,,1b/7b,,2b/6b,,
{16}3/5,,2,,7,5,,8,1,7,3,4,2,,8,,1/7,,6,,2,4,,1,8,2,6,5,7,,1,,3/8,,4,,6,5,,3,4,2,7,5,6,,2,,3/4,,5,,6,5,7,7,2,4,1,7,5,8,2,,3/7,,6,,2,4,,7,3,5,1,8,3,,7,,6/2,,3,,7,5,,2,6,4,8,1,6,,2,,6/2,,5,,3,4,,6,5,7,2,4,3,,7,,6/5,,4,,3,4,2,2,6,5,7,4,2/6,,,,3b>3[4:11]/7b<7[4:11],
E
