&title=Click
&artist=ClariS
&first=0.0375
&des=YORU #TeamMarika
&demo_seek=49.8
&demo_len=15.2
&lv_5=13
&inote_5=(135)
{1},
{8}E2,,E8,,B1,,B8,E3,
{16}E7,,,C,,,B7/B6,,B2/B3,,,,E6,,E5,,
{16}E4,,,C,,,B2/B3,,B7/B6,,,,,,
{16}B1,,B8,,,E8/B7,,,B5,,B4,,,E4/B3,,,E3h[8:7],,
{4}E7h[4:3],,,Cf,
{16}3b<2[2:1],,,5,,,7xh[8:3],,,,,,,,6,4,
{16}5x<4[2:1],,,3,,,1xh[8:3],,,,,,,,3,5,
{16}2xV46[8:3],,,4,,,6x>2[4:1],,,,,,,,8,1,
{16}7xV53[4:1],,8,,7/2h[16:1],,,1xV38[16:5],,,8,,7,,6,,
{8}5bh[4:1],,,8,5,8-3[6:1],5,8,
{8}5h[4:1],,,3,5,3-1[8:1],5,3,
{8}5>1[4:1],,1<5[4:1],,5>5[4:2],,1,1h[8:1],
{8},,,2-6[4:1],2,6qq2[8:3],7,8h[16:1],
{8},,1V73[8:3],,3,3>6[8:3],4,5h[4:1],
{8},,5,,4,3/2,1,7/8h[8:1],
{8}6>2[4:1],,2<6[4:1],,6p5[4:1],,2,2h[8:1],
{8},,8x-6[12:1]/1x-5[8:1],,8x-4-7[4:1]/1x-3[12:1],,8x/1x,,
{16}8bV26[4:1],,,6,,,7x-3-5[4:1],,,,B8,,B1,,B2,,
{16}3x-7[16:3],,,7qq2[8:3],,,E6h[8:3],,,,,,,,5x,,
{16}4xh[16:2]/3xh[16:2],,,7xh[16:2]/1xh[16:2],,,2x-6[8:1]/6x-2[8:1],,,,2pp1[2:1]/6pp5[2:1],,,,B2f/B6,,
{8},,,,,6-2[8:1],1V35[4:1],6,
{16}1x,,,B7h[8:1],,,8x/6x,,,,3-7[8:1],,8V64[4:1],,3,,
{16}8x,,,B2h[8:1],,,1x<4[4:1]/3xh[8:3],,,,,,,,
{48}B3,Cf,B7,A7,,,
{8},8/7,8-4[8:1]/7-5[12:1],6,8/7,,6xh[16:1],
{48}B6,Cf,B2,A2,,,
{8},1/2,1-5[8:1]/2-4[12:1],3,1/2,E4h[8:2],E6h[8:1],E5f,
{32},,,,,,,,1x,2x,3x,4x,5x,6x,7x,8x,1,2,3,4,5,6,7,8,1,2,3,4,5,6,7,8,
{4}1bx>4[8:1],1x<6[8:1]*<6[8:1],1xw5[8:1]*-5[8:1]b,1x,
{8}8b-5[8:1]/2b,,8/2-5[8:1],,8<4[8:3]/2,,8,4-2v3[8:3],
{8}3h[16:3],,,1,1v2[16:3],,1,4,
{16}5x-1[16:3],,,5/1V37[16:5],,,4,,4p2[4:1],,,,4,,6,,
{16}5V31[16:3],,,1V75[16:3],,,5<1[16:3],,Chf[4:1],,,,,,,,
{8}1b-4[8:1]/7b,,1/7-4[8:1],,1>5[8:3]/7,,1,5-7v6[8:3],
{8}6h[16:3],,,8,8v7[16:3],,8,5,
{16}4x-8[16:3],,,4/8V62[16:5],,,5,,5q7[4:1],,,,5,,3,,
{16}4V68[16:3],,,8V24[16:3],,,4>8[16:3],,Chf[4:1],,,,,,,,
{8}6b/2b>5[8:1],1,2/7-3[8:1],8,7/2-6[8:1],1,2/7<4[8:1],8,
{8}7/3qq5[4:1],2,3/6pp4[4:1],7,6,,,8,
{16}1xV75[16:3],,,1/5V31[16:5],,,8,,8s4[4:1],,,,8,,2,,
{16}3V17[16:3],,,7V53[16:3],,,3q2[16:3],,E7hf[4:1],,,,,,,,
{8}2b/6b<1[8:1],5,6/3-7[8:1],4,3/6-2[8:1],5,6/3>8[8:1],4,
{8}3/7qq1[4:1],6,7/2pp8[4:1],3,2,,4,5,
{16}6xpp5[2:1],,,4qq5[16:5],,,C,,Cf,,,,,,B3h[16:5]/B2h[16:5]/E3hf[16:5],,
{16}1x<4[4:1],,,,,,1x,,8x>5[4:1],,,E7hf[16:1]/B6h[16:1]/B7h[16:1],,,6x,,
{16}7b>6[2:1],,,5,,,3xh[8:3],,,,,,,,2,8,
{16}1x>8[2:1],,,7,,,5xh[8:3],,,,,,,,7,1,
{16}6xV83[8:3],,,8,,,3x>6[4:1],,,,,,,,4,5,
{16}3x>8[8:1],,4,,3/6h[16:1],,,5xqq8[16:5]b,,,8,,1,,2,,
{16}3x<6[8:1],,B1h[16:2]f/B8h[16:1]/E1,,,,7x>2[8:1],,B5h[16:2]f/B4h[16:1]/E5,,,,
{4}5xb<4[1:1],,,,
{32},,,,,E8,C,E4,,
E
