&title=Sweetest Scarlet
&artist=Nerissa Ravencroft
&first=0.6
&des=Aza
&lv_5=13
&inote_5=(108)
{1}2v3-5[2:1]/8h[1:1],1V72-6[2:1],2v3-5b[2:1]/1V72-6[2:1],{4}4pp4qq4[2:1]/7h[8:3],,,5<8[8:1],4-1[2:1]/5b,8,8,8,4-1[2:1]/7,7,7,7,4-1[2:1]/6,6,6,6,{16}2x/5x,,,3,4,,3,4,2,4,{8}3,
{4}4/5,{16}3/7,,6,4,{4}5<8[4:1],{8}3,4,5>2[4:1],,1,8,7<4[4:1],,,1,2,3,4/6,{16}4,5,{4}3>8[4:1],{8}5,6,7h[4:1],,8-4[8:1],1,2/8x,1,5w1[8:1],,5,,2/6,{16}3,5,{4}4>7[4:1],4/6,{4}5h[4:1],{8}1x,2,3/4,5,4h[8:1]/6,{16}E7,E6,,A3,{8}A2/B2,B4/E5,7,5/6,4,3/5h[8:1],{16}E4,E5,{8},6x,7/5h[8:1],8,4h[8:1]/6,5,7h[8:1]/3v6q2[4:1],5,B8f/E1/A8/D1,,5hbx[8:1],,4hx[8:1]/2,3,4V25[4:1]/5,,6,7,8h[4:1],,1,2,{2}1-5[8:1]/3>8[8:1],{8}7h[8:1],4,3/6h[8:1],5,5h[8:1]/2,4,3h[8:1]/7,4,{4}1b>8[2:1],,,5-1[8:1],
{8}2-7[8:1]/5b,3,2/8-4[8:1],1,3-6[8:1]/8,2,3/7h[4:1],,8-4[8:1],1,2-7[8:1]/8,3,2/6h[4:1],,5,{16}4,5,3h[8:1],,5,4,6h[8:1],,3,5,{8}2h[8:1],6h[8:1],1-5[8:1],8,1/7-2[8:1],8,3-6[8:1]/7,4,3/7h[4:1],,4-8[8:1],3,2-7[8:1]/4b,1,2/5-1[8:1],6,3-6[8:1]/5,2,3/8h[4:1],,1<6[8:1],2,1>4[8:1]/3,2,1/7h[4:1],,8,{16}1,8,2h[8:1],,8,1,7h[8:1],,2,8,{8}3h[8:1],4,2/5-1[8:1],3x/4x,2/5,{16},3,8,,6,1,7,2,8,3,{4}1b<3<1[4:7],
{4}2h[8:1],2h[8:1],2h[8:1],2h[8:1],1h[8:1],2h[8:1],3h[8:1],4V28-4b[4:3],5h[8:1],6h[8:1],7h[8:1],8h[8:1],{16}1x/2x,,,7,8x,,6x,5,7x,4,{8}8x,2v3-5b[2:3]/1V72-6[2:3],,{1},,3h[1:1]/7h[1:1],{4},B3h[4:3],B6h[2:1],E5h[4:1],
C,{8}1b-5[8:1]/8,2,1/7-2[8:1],6,4-8[8:1]/7,3,5/4,6-2[8:1],1,3,5h[4:1],,1,{16}4x/8x,3x/7x,2x/6x,,3x/7x,2x/6x,1x/5x,,2x/6x,1x/5x,4x/8x,,1,2-6[8:1],,{8}3/7,{16},{8},8h[4:1],5qq6[4:1],4,3x/5x,,8,1,2b/4-7[8:1],5,1-5[8:1]/4,2,1/8<2[4:1],,8/2V47b[4:1],,8,1,2,3,4h[4:1],,8,{16}5x/7x,4x/6x,3x/5x,,4x/2x,5x/3x,6x/4x,,5x/7x,4x/6x,3x/5x,,2,1-5[8:1],,{8}3/8,{16}4x,{8},3,2/4,6,5-2[8:1]/7-4[8:1],,5b/7b,,
{8}1-7-2-6[2:1],2,3,4,3,,2v3-5b[2:1],,6,7,{16}8,,,D2/E2/B1/B2,{4},{8}4,3,{12}2/5,6x,4,{8}8hx[4:1],4,{12}3,7x,1,{8}5hx[4:1],1,{8}8v6[8:1],1,8v2[8:1]/2,3,4>1[8:1]*<7[8:1]/8,,4b,,{8}1-7-2-6[2:1],2,3,4,3,,2v3-5b[2:1],,6,7,{16}8,,,D2/E2/B1/B2,{4},{8}4,3,{12}2/5,1x,8,{8}7x-4[8:1],4,{12}3,2x,1,{8}8x>3[8:1],,{16}4bx/8,,6,6bx,5/7x,4x,3bxp1[4:1]/8<3[4:1],,{2},
{4}8-5[2:1],4,4,4,8-5[2:1]/3,3,3,3,8-5[2:1]/2,2,2,2,8-5[2:1]/1,1,1,1x,{1}8<5[2:1],8<5[2:1],8<5[2:1],{8}8h[4:3],,,2h[8:3],
