&title=[宴] ヒバナ
&artist=DECO*27
&first=0
&des=Jack2310
&lv_7=14
&des_7=Jack2310
&inote_7=
(200){4},{12},,,,,,,,,{6}1-5[4:1],
1,1,2-6[4:1],2,2,
3-7[4:1],3,3,4w8[8:1],{12},,,,{4}6-2[8:1],
{8}5,5-1[8:1],,4,{4}4,
3-7[8:1],{8}4,4-8[8:1],,5,{4}5,
1-5[8:1],8-4[8:1],7-3[8:1],6-2[8:1],
{8}5,,,4,{2}4-8[8:1],
{8}1b,2,8,6,7,5,6-2[8:1],6,
7-3[8:1],7,8-4[8:1],8,1-5[8:1],1,,,8,
7,1,3,2,4,3-7[8:1],3,
2-6[8:1],2,1-5[8:1],1,8-4[8:1],8,,,5,
6,4,2,3,1,2-6[8:1],2,
3-7[8:1],3,4-8[8:1],4,5-1[8:1],5,,,4b,
3,5,7,6,8,7-3[8:1],7,
6-2[8:1],6,5-1[8:1],5,4-8[8:1],4,,,7b/1b,
,,2,{4}2h[4:1],{8}8,8-4[8:1],
,7-3[8:1],,,,2,{4}2,
{8}5h[4:1],,,4,{4}4-8[8:1],{8}5,5-1[8:1],
,6-2[8:1],,,,,{4}3h[4:1],
{8}5,,,5,7,6-2[8:1],6,7-3[8:1],
,8-4[8:1],,,,,,1,
2-6[8:1],2,3-7[8:1],3,4-8[8:1],4,5-1[8:1],5,
6-2[8:1],6,7-3[8:1],7,8-4[8:1],8,,,{4}5b/3b,
{8}7,7-3[8:1],{4}8,{8}2,2-6[8:1],
{4}1,{8}7,8-4[8:1],{4}8,{8}3,3-7[8:1],
{4}4,{8}6,6-2[8:1],{4}5,{8}3,4-8[8:1],
,4/5-1[8:1],,5,,,{4}2,
4/5,{8}7,7-3[8:1],{4}8,{8}2,1-5[8:1],
,1/8-4[8:1],,8,,,,8,
7-3[8:1],7,6-2[8:1],6,5-1[8:1],5,4-8[8:1],4,
3-7[8:1],3,2-6[8:1],2,1-5[8:1],1,,,{4}4b/6b,
3,{8}4,5,,6-2[8:1],
,7,{4}7-3[8:1],{2}8-4[8:1],
{4}5h[4:1],4,{8}4,3,,3-7[8:1],
,2,{4}2-6[8:1],{2}1-5[8:1],
{4}6,8-4[8:1],1-5[8:1],2-6[8:1],
3-7[8:1],4-8[8:1],5-1[8:1],6,
{8}4b,,,6b,,,{4}3b,
{8},,,,,,,4,
{4}5-1[8:1],6-2[8:1],7-3[8:1],{8}8,8-4[8:1],
,1,{4}1-5[8:1],{2}2-6[8:1],
{8},7-3[8:1],,8,{4}8-4[8:1],{8}1,1-5[8:1],
,2,{4}2-6[8:1],{8},,,5,
{4}4-8[8:1],3-7[8:1],2-6[8:1],{8}1,1-5[8:1],
,8,{4}8-4[8:1],{2}7-3[8:1],
{8},2-6[8:1],,1,{4}1-5[8:1],{8}8,8-4[8:1],
,7,{4}7-3[8:1],,4-8[8:1],
3-7[8:1],2-6[8:1],1-5[8:1],8-4[8:1],
7-3[8:1],6-2[8:1],5-1[8:1],4,
3-7[8:1],4-8[8:1],5-1[8:1],{8}6,6-2[8:1],
,7,{4}7-3[8:1],,5-1[8:1],
6-2[8:1],7-3[8:1],8-4[8:1],1-5[8:1],
2-6[8:1],3-7[8:1],4-8[8:1],5,
5,{8}6/4,3,{4}3-7[8:1],{8}4,4-8[8:1],
,5,{4}5-1[8:1],{2}5/4b,
{4}5-1[8:1],6-2[8:1],{8}7,7h[4:1],,,{4}8-4[8:1],
7-3[8:1],6-2[8:1],{8}5,5,
,,{4}4/5,{8}2,2-6[8:1],,1,
{4}1-5[8:1],8<4[8:3],,,{2}3-7[8:1],
{8}2,2-6[8:1],,1-5[8:1],
,8-4[8:1],,7-3[8:1],,6-2[8:1],,,,,{4}7-3[8:1],
{8}8,8-4[8:1],,1,
{4}1-5[8:1],2>8[2:1],,,,,,,4,
5b,{8}6,5-1[8:1],,6-2[8:1],
,7,{4}7-3[8:1],{2}8-4[8:1],
{4},4/6,{8}3,4,,2,
{4}2-6[8:1],{8}1-5[8:1],1,8-4[8:1],8,,,{4}6-2[8:1],
7-3[8:1],8-4[8:1],1-5[8:1],
8-4[8:1],7-3[8:1],6-2[8:1],5,
{8}5h[8:3],,,6h[8:3],,,{4}7b,
{8},,,,,,,,4h[8:3],
,,3h[8:3],,,{4}2b,
{8},,,,,,,3,
{4}2-6[8:1],1-5[8:1],8-4[8:1],{8}6,6-2[8:1],
,5,{4}5-1[8:1],{2}4-8[8:1],
{8},2-6[8:1],,3,{4}3-7[8:1],{8}4,4-8[8:1],
,5,{4}5-1[8:1],{8},,,5,
{4}6-2[8:1],5-1[8:1],4-8[8:1],{8}2,2-6[8:1],
,1,{4}1-5[8:1],{2}8-4[8:1],
{8},7-3[8:1],,6,{4}6-2[8:1],{8}5,5-1[8:1],
,4,{4}4-8[8:1],,1-5[8:1],
2-6[8:1],3-7[8:1],4-8[8:1],5-1[8:1],
6-2[8:1],7-3[8:1],8-4[8:1],1b,
7-3[8:1],6-2[8:1],5-1[8:1],{8}4,4-8[8:1],
,3,{4}3-7[8:1],{2}2-6[8:1],
{4}7-3[8:1],6-2[8:1],5-1[8:1],4-8[8:1],
3-7[8:1],2-6[8:1],1-5[8:1],8,
2-6[8:1],{8}3-7[8:1],3,{4}4-8[8:1],{8}5,5-1[8:1],
,6,{4}6-2[8:1],{8},,,6,
{4}7-3[8:1],8-4[8:1],1-5[8:1],{8}2,2-6[8:1],
,3,{4}3-7[8:1],{2}4-8[8:1],
{8},6-2[8:1],,5,{4}5-1[8:1],{8}4,4-8[8:1],
,3,{4}3-7[8:1],{8},,,7,
{4}6-2[8:1],5-1[8:1],4-8[8:1],{8}3,3-7[8:1],
,2,{4}2-6[8:1],1-5[8:1],8b,
{8},2-6[8:1],,1,{4}1-5[8:1],{8}8,8-4[8:1],
,7,{4}7-3[8:1],,8-4[8:1],
7-3[8:1],6-2[8:1],5-1[8:1],4-8[8:1],
5-1[8:1],6-2[8:1],7-3[8:1],8b,
8-4[8:1],1-5[8:1],2-6[8:1],{8}3,3-7[8:1],
,4,{4}4-8[8:1],{2}6-2[8:1],
{4}1-5[8:1],2-6[8:1],3-7[8:1],4-8[8:1],
3-7[8:1],2-6[8:1],{2}1-5[8:1],
{4}3h[8:1],{8}4,5,{4}4/6,{8}5/3,2,
,1,{4}8,7b/1b,1-5[8:1],
1b/2-6[8:1],2/3-7[8:1],3/4-8[8:1],4/5-1[8:1],
5/6-2[8:1],6/7-3[8:1],7/8-4[8:1],8/1,
7-3[8:1],6-2[8:1],5-1[8:1],{8}4,4-8[8:1],
,3,3-7[8:1],2,{4}2-6[8:1],2,
8b/7-3[8:1],7/6-2[8:1],6/5-1[8:1],5/4-8[8:1],
4/3-7[8:1],3/2-6[8:1],2/1-5[8:1],1/8,
{1}4h[8:11]/7h[8:11],
{2},4/7,
{8},8,
E
