&title=GOODFORTUNE
&artist=EBIMAYO
&first=0
&des=abc
&des_5=
&lv_5=14
&inote_5=(170){4},,,,{1}2<3[2:3]/8<5v3[2:3],
,5>5[2:3]*<5[2:3],
,1>1[2:3]*<1[2:3],
,8-5>8[4:5]/5-8>5[4:5],
{4},,,6/3,
8b-5[8:1],5-8[8:1],8-5[8:1],5-8[8:1],
8-3[8:1],3-8[8:1],8-3[8:1],3,
4-1[8:1],1-4[8:1],4-1[8:1],1-4[8:1],
4-7[8:1],7-4[8:1],4-7[8:1],7,
8-3[8:1],3-8[8:1],8-5[8:1],5,
4-7[8:1],7-4[8:1],4-1[8:1],8,
{8}6,6,3,3,{16}5,4,5,4,5,4,5,4,
6,5,,3,{8}4,{16}6,5,{8}7-4[8:1],8,{4}1/7,
{8}3b,3h[8:1],5,5h[8:1],{16}3,4,,2h[16:3],{8},5,
6,6h[8:1],4,4h[8:1],{16}6,5,,7h[16:3],{8},4,
3,3h[8:1],5,5h[8:1],{16}3,4,,2h[16:3],{8},5,
6h[4:1]/4h[4:1],{4},{8}3h[4:1]/5h[4:1],{4},{16}5,4,{8}5,
6,6h[8:1],4,4h[8:1],{16}6,5,,7h[16:3],{8},3,
2,2h[8:1],5,5h[8:1],{16}3,4,,2h[16:3],{8},6,
7,7h[8:1],3,3h[8:1],{16}6,5,,7h[16:3],{8},4,
{4}5h[8:1]/3h[8:1],6h[8:1]/2h[8:1],{2}7<4[8:1]/1>4[8:1],
{8}1b/7b,7,2/8,2,{16}3,4,,5,{8}2h[8:1],7,
8/2,2,7/1,7,{16}6,5,,4,{8}7h[8:1],2,
1/7,7,2/8,2,{16}3,4,,5,{8}2h[8:1],6,
7h[4:1]/1h[8:1],{4},{8}2h[4:1]/6h[8:1],{4},{16}5/3,6,7,8,
{8}2/1,2,7/8,7,{16}6,5,,4,{8}7h[8:1],2,
8/7,7,2/1,2,{16}3,4,,5,{8}2h[8:1],7,
1/2,2,7/8,7,{16}6,5,,4,{8}7h[8:1],1,
{4}8h[8:1]/2h[8:1],3h[8:1]/5h[8:1],{2}8h[8:1]/6-2[8:1],
{8}3b/5b,5/3-1[8:1],,3x/4-8[8:1],,4x/5-7[8:1],,5x/4-8[8:1],
,4x/3-1[8:1],,3x/4-8[8:1],,5/4x,6,7,
2b/8b,8/2-4b[8:1],,2x/1-5b[8:1],,1x/8-6b[8:1],,8x/1-5b[8:1],
,1x/2-4b[8:1],,2x/1-5b[8:1],,8/1x,7,6,
5b/4b,4,4,4,4b/6b,6,6,6,
6b/2b,2,2,2,8b/1b,8/1,{4}E3/E7,
{16}1b,8,1,8,2,7,2,7,3,6,3,6,4,5,4,5,
3,6,3,6,2,7,2,7,{8}1-5[8:1],8/2,{4}1/7,
2b/7b<4[8:1],7/3>8[8:1],3/6-1[8:1],{8}6/2-5[8:1],3,
2/8-4[8:1],7,8/1-5[8:1],2,1/8-6[8:1],7,8/3-1[8:1],2,
3/5-3[8:1]*-7[8:1],5,{4}5-1[8:1],5/2-5[8:1],{8}2/8-5[8:1],7,
8/4-1[8:1],3,{4}4/6-1[8:1],2/6,{16}2,1,3,8,
{4}7b/4b-1[8:1],4/5-8[8:1],6/5-1[8:1],{8}5/3-8[8:1],4,
3/6-1[8:1],5,{4}6/2>5[8:1],{8}2/8-4[8:1],7,8/1-5[8:1],2,
{4}1/7v4[8:1],{8}7/4,3v8[8:1],,8/3,{4}7,
{16}6,5,,3,{8}4,{16}6,5,{8}6,7,{16}1,8,1,8,
{8}1b,2>5b[8:1],1,8<5[8:1],1,2>5b[8:1],1,8<5[8:1],
1,2>5b[8:1],1,8<5[8:1],1,2>5b[8:1],1,8,
7,6,5/3,1,6/4,8,5/3,1,
6-1[8:1]/4-1[8:1],7,{4}6/4,{8}2-5[8:1]/8-5[8:1],3,{4}2/8,
7b/2b,{8}8/1,7<4b[8:1],8,1>4[8:1],8,7<4b[8:1],
8,1>4[8:1],8,7<4b[8:1],8,1,2,3,
{16}5,4,5,4,5,4,5,4,6,3,6,3,6,3,6,3,
B8,B7,B6,B5,B1,B2,B3,B4,E8,E7,E6,E5,{4}Cf,
{8}1/7-4[8:1],6,1-5[8:1],2,{16}6,6h[8:1],{8},7,1,
8/2-5[8:1],3,8-4[8:1],7,{16}3,3h[8:1],{8},2,8,
1/7-4[8:1],6,1-5[8:1],2,{16}6,6h[8:1],{8},7,1,
{4}8/2h[4:1],{8}5,4/6h[4:1],,3,{16}4/2,5,6,7,
{8}8/2>5[8:1],3,8-4[8:1],7,{16}3,3h[8:1],{8},2,8,
1/7<4[8:1],6,1-5[8:1],2,{16}6,6h[8:1],{8},7,1,
8/2>5[8:1],3,8-4[8:1],7,{16}3,3h[8:1],{8},2,8,
{4}7h[8:1]/1h[8:1],4h[8:1]/6h[8:1],1h[8:1]/3h[8:1],8h[8:1]/6h[8:1],
{8}4b/3b,2,5/6-1[8:1],7,{16}2,2,,3,{8}3,5,
5/6,7,4/3-8[8:1],2,{16}7,7,,6,{8}6,4,
4/3,2,5/6-1[8:1],7,{16}2,2,,3,{8}3,5/4,
{4}4/6h[4:1],{8}1,8/2h[4:1],,7,{16}8/6,1,2,3,
{8}4/6,7,5/3>8[8:1],2,{16}7,7,,6,{8}6,4,
5/3,2,4/6<1[8:1],7,{16}2,2,,3,{8}3,5/2,
{16}1,6,1,6,8,7,8,7,1,2,3,4,{32}5,6,7,8,1,2,3,4,
{4}5-1[8:1],5<8[8:1]*>2[8:1],5w1[8:1],5b,
{8}3b/7b,{16}5,6,4-8[8:1],5,{8}3,{4}4x/2h[4:1],{16}1,8,7,6,
{8}5/1,{16}8,6,1,7,2,8,{8}3,6/4,2/5,7/8,
6/2,{16}4,3,5-1[8:1],4,{8}6,{4}5x/7h[4:1],{16}2,3,4,5,
{8}7h[8:1],{16}8,6h[8:1],,1,{8}5,{16}2,2,4,4,6,6,8,8,
{8}2b,{16}4,3,5-1[8:1],4,{8}6,{4}5x/7h[4:1],{16}8,1,2,3,
{8}4/8,{16}1,3,8,2,7,1,{8}6,3/5,7/4,3/1,
4/2,{16}3,4,2,5,{8}1,5/7,{16}6,5,7,4,{8}8,
1/3,{16}2,1,3,8,{8}4,{16}5/7,6,5,4,{32}1,2,3,4,5,6,7,8,
{8}1b/5b,{16}4,2,5-1[8:1],3,6,4,{4}5x/7h[4:1],{16}8,1,2,3,
{8}4/8,{16}1,2,8,3,7,4,6,5,7,4,6,5,{8}7,
8/4,{16}5,7,4-8[8:1],6,3,5,{4}4x/2h[4:1],{16}7,6,5,4,
{8}2h[8:1],{16}1,3h[8:1],,8,{8}4,{16}7,7,5,5,3,3,1,1,
{8}8b,{16}5,7,4-8[8:1],6,3,5,{4}4x/2h[4:1],{16}1,8,7,6,
{8}5/1,{16}8,7,1,6,2,5,3,4,2,5,3,4,2,5,
3b,6,4,5,3b,6,4,5,2b,7,3,6,2b,7,3,6,
1b,8,2,7,1b,8,2,7,1bs5[8:1]/8z4[8:1],8/1,8/1,8/1,{4},{8}6x>3[4:1],
{4},{8}2h[8:3],{4},5,
{8}3<6[4:1],{4},{8}7h[8:3],{4},4,
{8}6>3[4:1],{4},{8}2h[8:3],{4},6,
{16}3,4,,6,{8}5,{16}3,4,{8}3,2,1-5[8:1],8,
{1}1b/7,
E
