&title=Doping Dance
&artist=STEAKA
&first=0.07
&des_5=繝帙繧キ繝縕繧薙
&lv_5=14
&des=繝帙繧キ繝縕繧薙
&inote_5=(194)
{1},
{16}5,,4,,B6,,3h[4:1],,,,6,,E5,,7h[4:1],,,,E3,A3,8,,1,,B7,,E3,,E6h[8:1],,,,
{16}3,,4,,B3,,6h[4:1],,,,5,,B6,,4h[4:1],,,,6h[16:1],,B3,,7h[8:1],,B4,B6,B2,B8,1bx,,,,
{16}4,,5,,B3,,6h[4:1],,,,3,,E5,,2h[4:1],,,,E7,A6,1,,8,,B2,,E7,,E4h[8:1],,,,
{16}6,,5,,B6,,3h[4:1],,,,4,,B3,,5h[8:5],,1,,,,1,,,,1w5[8:1],,,,1x/Ch[4:1],,,,
{16}8,,7,,4/6,,3h[8:1],,,,5,,4/6,,7h[8:1],,,,1,2,3h[8:1]/7,,8h[8:1],,5,,4,,3/6,,2,,
{16}6,,5,,1/4,,2h[8:1],,,,4,,3/5,,6h[8:1],,,,4,3,2h[8:1]/6,,5h[8:1],,B3,B5,B2,B6,1bx,,,,
{16}1,,2,,5/3,,6h[8:1],,,,4,,5/3,,2h[8:1],,,,8,7,6h[8:1]/2,,1h[8:1],,4,,5,,6/3,,7,,
{16}3,,4,,8/5,,7h[8:1],,,,5,,6/4,,3h[8:1],,,,5,6,7h[8:1]/3,,4h[8:1],,B6,B4,B7,B3,8bx,,,,
{8}2v5[8:1]/8-5[8:1],,2/8V26[4:1],,8/3,3h[8:1],,2-8[8:1],,2/4-8[8:1],,4-2[8:1],2V84[4:1],4,,,
{8}1xv6[8:1]*-4[8:1],,1xV72[4:1],,1,6,5,4-8[8:1],,1V35-7b[8:3]/4,,B8hf[8:3]/E1hf[16:5]/E8hf[4:1],,,,,
{8}7v4[8:1]/1-4[8:1],,7/1V73[4:1],,1/6,6h[8:1],,7-1[8:1],,7/5-1[8:1],,5-7[8:1],7V15[4:1],5,,,
{8}8xv3[8:1]*-5[8:1],,8xV27[4:1],,8,3,4,5-1[8:1],,8z4b[8:3]/5,,A2h[4:1]/D3hf[8:3]/A3h[4:1],,,,,
{16}2<7[8:1],,,,2/8,,6,5,4h[8:1],,8-4[8:1],,1/7,,2h[4:1],,,,5,6,7V53[4:1],,3,2,1-5[8:1],,8,,Ch[4:1],,,,
{16}7>2[8:1],,,,7/1,,3,4,5h[8:1],,1-5[8:1],,8/2,,7h[4:1],,,,4,3,2h[8:1],,6h[8:1],,E4,E6,B2,B7,1bx,,,,
{24}7>2[8:1],,,,,,2/7,3,4,5,6,7,8-2[8:1],,,5-3[8:1],,,8,,,5<8[8:1],,,,,,
{16}1V74[4:1],2,3,,4z8[4:1],3,2,,,,Ch[4:1],,,,
{24}2x<7[8:1],,,,,,7/2,6,5,4,3,2,1-7[8:1],,,4-6b[8:1],,,1,,,4>1b[8:1],,,,,,8<5b[8:1]/4,,,,,,8/4,,,
{16}E4,E6,B2,B7,1bx,,,,
{8}4/6v1[8:1],,2-5[8:1]/6,,2,8,7/4,6-4[8:1],,2-6[8:1],,8,8v5[8:1]*-3[8:1],,8,,
{8}1-5[8:1],,1/7<4[8:1],,7,3,2,1-5b[8:1]/5-1[8:1],,1qq2[8:3]/5qq6b[8:3],,,,,,,
{8}5/3v8[8:1],,7-4[8:1]/3,,7,1,2/5,3-5[8:1],,7-3[8:1],,1,1v4[8:1]*-6[8:1],,1,,
{8}8-4[8:1],,8/2>5[8:1],,2,6,7,4h[8:1]/8,,8-4[8:1],4-8[8:1]*V25[4:1],8V61[4:1],,,,,
{8}3-5[8:1],,3<7[8:1]/5>1[8:1],,D5/A4/D4,,8,8/3-5[8:1],,3<7[8:1]/5>1[8:1],,D5/A4/D4,,8,1h[8:1]/7h[8:1],,
{8}3>8[8:1],,5q1[8:1],,4p8[8:1],,7,6-4[8:1],,4v2[8:3]/6<2[8:3],,,,,,,
{8}7p3b[8:1],,2q6[8:1],,7,8,1,1-4b[8:1],,3pp4-1>2[2:1],,5x,6x,7x,8xh[8:1],,
{16}3-5[8:1],,,,7-3[8:1]/3,,,,7/1,,1,,2h[16:1]/8h[16:1],,2h[16:1]/8h[16:1],,
{4}3h[2:1],C,8w4b[8:1],8b/E1/E2/E3/E4/E5/E6/E7/E8/B1/B2/B3/B4/B5/B6/B7/B8/Chf[384:1],
{8}2h[8:3],,6-4[8:1],8V62[4:1],6,8,1q5[8:1],1>4[8:1],1,,,7h[4:1],3<5b[8:1],1>7[8:3],3<7[4:1],,8,1-5[8:1],3V17[4:1],1V74[4:1],3,7x,6x,5x,
{4}3b-6[8:1],3b/7b-4[8:1],7b/1bw5b[8:1],1x/Ch[4:1],
{8}2q6[8:1]*v5[8:1],,2,,7-1[8:1],1V75[4:1],2-4[8:1],4V26[4:1],2w6[8:1],,,,8,1,2/7<4[8:1],3,
{4}7x/5x>2b[8:1],5x/3x>8[8:1],3x/1x-5b[8:1],1x/7xV13[4:1],7/3V57[4:1]*V17[4:1],,A7hf[4:1],,
{8}8h[8:3],,3-5[8:1],1V37[4:1],3,1,8p4[8:1],8<5[8:1],8,,,2h[4:1],6>4b[8:1],8<2[8:3],6>2[4:1],,1,8-4[8:1],6V82[4:1],8V25[4:1],6,2x,3x,4x,
{4}6b-3[8:1],6b/2b-5[8:1],2b/8bw4b[8:1],8x/Ch[4:1],
{8}1s5[8:1]*v4[8:1],,1,,3-1[8:1],1V35[4:1],8-6[8:1],6V84[4:1],8w4[8:1],,,,2,1,8<5[8:1]/3,7,
{4}6x>3b[8:1]/8x,6x/4x>1[8:1],4x/8x-4b[8:1],8x/6xV82[4:1],6/2V86[4:1]*V46[4:1],,A6hf[4:1],,
{8}1s5[8:1]*-5[8:1],8h/3h,1xV73[4:1],,1h,6h[8:1],,2-4<5[4:1],,2/5V31[4:1],6h,7,8bx<7-3<4[8:1]*s4[8:1],8bx,8xh,,
{8}1-3<4[8:1],4-2<8[4:1],1hx/6,,7-3[8:1],,7x/6h,5-7<6-8<7-1[8:3],,2,E5h[8:1],,
{16}3x-5>4-2-6[4:1],,,E1,,,A7,,
{8}8x-4[8:1],8x,3x<4-6[8:1],2,3-1<8[8:1],7v4b[8:1],3,7h,,2h[8:1],E6h[8:1],,1bx>2-6>5[8:1]*z5[8:1],1bx,1xh,,
{8}8<7-1[8:1],1-6>5[8:1],2-6[8:1],,2x-4[8:1],4x-8[8:1],2xh,A7/D7/A6,,A2/D3/A3,,1b/8b,
{32}2x-8b[32:1],3x-1[32:1],4x-2[32:1],5x-3[32:1],6x-4[32:1],7x-5[32:1],8x-6[32:1],1xV73[2:7],A8f/B8/E1,D2,D3,D4,D5,D6,D7,D8,
{1}D1,,,,
{4}E1h[4:15],,,,E5h[4:11],,,,B7h[4:7],,,,B3h[4:3],,Ch[4:1],,
{4}1/2,1/2,8/2,8/2,3/7,3/7,4/6,4/6,5/2,5/2,3/7,3/7,4-2[8:1]/6,4/8,4/6-8[8:1],6/1,
{8}2,2,2/3,2,2/4,2,1/5,1,6/8,8,7/8,7,5/7,5/7,4/6,4/6,
{16}5,3,5,3,6,2,6,2,
{32}7x-1b[32:1],6x-8[32:1],5x-7[32:1],4x-6[32:1],3x-5[32:1],2x-4[32:1],1x-3[32:1],8x-2[32:1],A1/E2/B1,D8,D7,D6,D5,D4,D3,D2,
{16}D1h[8:1]/A1h[16:3]/E1h[4:1],,,,,,C,,E4,E6,E3,E7,1bx,,,,
{8}2h[8:3],,6-4b[8:1],8V64[4:1],6V42[4:1],8,1-5[8:1],1xV73[4:1],,,,6h[4:1],2>4b[8:1],8>6[8:3],2>6[4:1],,7,8-2[8:1],2V86[4:1],8-6v3[4:1],4,3,2,1,
{4}8b>3[8:1],5b<8[8:1]/8b,5b/1bw5b[8:1],1x/Ch[4:1],
{8}2q6[8:1]*pp4[8:1],,2,,7-1[8:1],1V75[4:1],3-5[8:1],5V37[4:1],3w7[8:1],,,,1,2,3/8>2b[8:1],7,
{4}1x>3[8:1]/8x,1x/8x>4b[8:1],1x>5[8:1]/8x,1x/8xqq2[2:1],
{8}8x/Cf,,,4,5xw1[8:1],,Chf[4:1],,
{8}7h[8:3],,3-5b[8:1],1V35[4:1],3V57[4:1],1,8-4[8:1],8xV26[4:1],,,,3h[4:1],7<5b[8:1],1<3[8:3],7<3[4:1],,2,1-7[8:1],7V13[4:1],1-3v6[4:1],5,6,7,8,
{4}1b<6[8:1],4b>1[8:1]/1b,4b/8bw4b[8:1],8x/Ch[4:1],
{8}7p3[8:1]*qq5[8:1],,7,,2-8[8:1],8V24[4:1],6-4[8:1],4V62[4:1],6w2[8:1],,,,8,7,6/1<7b[8:1],2,
{4}8x<6[8:1]/1x,8x/1x<5b[8:1],8x<4[8:1]/1x,8x/1xpp7[2:1],
{8}1x/Cf,,,,A5hf[2:1],,,,
{8}1,2/6,3/E7h[8:1],,2/6x,B7h[8:1]/3,,2/6x,3/Ch[8:1],,2-8>1-4[4:1]/6x,3/B5h[8:1],2x,6x,7xh[4:1],,
{8}1,2,3/E7h[8:1],,2h[8:1]/C,,1-5[8:1],2V41[4:1]/E8,,2,6V48[4:1],7,1x-3>2-4>3-5>4-6b[4:1],,,,
{8}8,7,6/E3h[8:1],,7/3x,B2h[8:1]/6,,7/3x,6/Ch[8:1],,7-1<8-5[4:1]/3x,6/B4h[8:1],7x,3x,2xh[4:1],,
{8}8,7,6/E3h[8:1],,7h[8:1]/C,,8,7/1-3[8:1],,1/8-4[8:1],,7-5[8:1]/8,,7/3,
{24}A2,B2,C,B6,A6,,
{8}1x/8x,3/7,2/6,3/7,2/B6h[8:1],,3/7,2/B5h[8:1],,3/7,2/E5h[8:1],,1>2>3<4[8:1]/5x<6<7>8[8:1],,1/5,,
{8}8x/1x,6/2,7/3,6/2,7/B3h[8:1],,6/2,7-5[8:1]/B4,,7/8-4[8:1],,1-3[8:1]/8,,1/6,
{24}A7,B7,C,B3,A3,,
{8}8x/1x,6/2,7/3,6/2,7/B3h[8:1],,6/2,7/B4h[8:1],,6/2,7/E5h[8:1],,8<7<6>5[8:1]/4x>3>2<1[8:1],,8/4,,
{8}6x/E2,7x/E4h[8:1],,2x/E5,3x/Ch[8:1],,8x/B1,7x/B4h[8:1],,3x/B5,4x/B8h[8:1],
{24}D4,A3,D3,
{8}A2/7xw3b[16:1],7x,
