&title=幕を下ろそう、パレードへ
&artist=海茶; 琴葉茜・葵
&first=0.02
&des=不论怎么样现在想吃『马卡龙』
&lv_5=13
&inote_5=(146){1},
{4},,,
{4}2hx[4:1],4,5h[4:1],4,3hx[4:1],4,6h[4:1],5,4hx[4:1],5,7h[4:1],5,4x-6[8:1],3,5-2[8:1],6,4x-7[8:1],3,5-1[8:1],7,4xpp3[8:5],5x,,,,
{8}7h[8:3],,5,,,4x,5x,,2h[8:3],,4,,5x,4x,6,,7h[8:3],,4,,,3x,4x,,2h[8:3],,5,,6x,5x,7,,
{8}2-5[8:1]/8,,6,,,4x,5x,,7-4[8:1]/1,,3,,5x,4x,6,,2-5[8:1]/8,,5,,6x,4x,7-5v6-4[8:3],5,8hx[2:1],,,,2x,
{16}E3,C,E7,,,,
{8}2/4x,4,5x/3,5,4-6[8:1],,,,7/5x,5,4x/6,4,5-3[8:1],,,,4x-7[8:1]/2,,8x,8x-4[8:1],,3,2,1,6/8x>3[8:1],,4x,6x-4v5-3[6:2],,7h[4:1],,,
{8}6x,5,4x-7[8:1],3,2x-5[8:1],,,,5x/7,6,4x-8[8:1]/5,3,2x-5[8:1]/4,,7xpp4[8:6],,,,,,,,
{8},2x,8x,6hx[8:3],E3,E5,E7,,C,,
{8}7x<4[8:1],,5<8[8:1],3,1x<6[8:1],,4xpp3[16:4],,4>6[16:5],,,,4xq8[8:1],,1<6[8:1],,5x<8[8:1],3,8<5[8:1],,4x<7[8:1],2,8>3[8:1],,5x-2[8:1],5,7-3[8:1],7,4-1[8:1],,4x/8x,,
{8}2x>5[8:1],,4>1[8:1],6,8x>3[8:1],,5xqq6[16:4],,5<3[16:5],,,,5xp1[8:1],,8>3[8:1],,4x>1[8:1],6,1>4[8:1],,5x>2[8:1],7,1<6[8:1],,4x-7[8:1],4,2-6[8:1],2,5-8[8:1],,5x/1x,,
{8}2>5[8:1],4x,6,8,1>4[8:1],3x,5,7,8>3[8:1],2x,4,6,7qq8[16:4],,,,1>4[8:1],3x,5,7,8>3[8:1],2x,4,6,7-3[8:1],1-5[8:1],7,1,8xw4[8:1],,,,
{8}7<4[8:1],5x,3,1,8<5[8:1],6x,4,2,1<6[8:1],7x,5,3,2xpp1[16:4],,2<3[8:3],,,,2x-6[8:1],,4q8[8:1],4,1>4[8:1],2,6xpp7[6:1],,4xqq3[6:1],,5bx,,,,
{8}6-4[8:1],,3h[4:1]x,,7-3[8:1],,2h[4:1]x,,4-6[8:1],,7h[4:1]x,,3-7[8:1],,4h[4:1]x,,6-4[8:1],,7h[4:1]x,,3-7[8:1],,4h[4:1]x,,8-4[8:1],5,7,1,2x-6b[8:1]/8x-4b[8:1],,,,
{8}3-1[8:1],,4h[4:1]x,,8-4[8:1],,6,,8-6[8:1],,5h[4:1]x,,1-5[8:1],,2,,3hx[2:1],,E2,E8,E6,E4,D3,E2,
{64}Cf,4hx[4:3],,,,,,,,,,,,,,,
{4},,,
{8}6-4[8:1],4x-7[8:1],6x,8>3[8:1],,4,5,6,7-4[8:1],4x-8[8:1],7x,1>4[8:1],,5,6,7,5-2[8:1],,1x,1x-5[8:1],,3,2,1,8-4-7[8:2],,2,2h[8:3],,,8x,,
{8}3x,4,5x-2[8:1],6,7x-4[8:1],,,,4/2x,3,5-1[8:1]/4x,6,7-4[8:1]/5x,,2qq8qq6[8:6],,3bh[4:4],,,,,,,,E8,C,E6,D7,8bw4[8:1],,,,
{8}3hx[4:4],,5v6-4[4:2],,,,,,,,2h[4:2],,4x-7[8:1],,,,3xh[4:4],,5v6-4-7[8:5],,,,,,,,2h[4:2],,4x-8[8:1],,,,3/5,3h[4:1],E5,,4/6,6h[4:1],E5,,2/5,3h[4:1],E6,,7/4,6h[4:1],E4,,
{16}2x,4,3,4,2,5,4,5,2x,4,3,5,4,6,5,7,
{32}8xw4[8:1],,,,,,,,
{4},
{64}
Cf/A6/B6/B2/A2,,,,,,,,,,,,,,,,
{4}1bx/8bx<5[8:1],
{8}4q8[8:1],2,1x>4[8:1],,5p1[8:1],7,8x<5[8:1],,
{8}4xpp3[4:1],,4>7[8:2],,,,4xq8[8:1],,2-6[8:1],3,6,4x<2[8:2],,1,3,5,4-8[8:1],7-4[8:1],4,7,1xw5[8:1],,,,
{8}7<4[8:1],5,3x>8[8:1],,1>4[8:1],7,5x<8[8:1],,1<6[8:1],3,4xw8[8:1],2,,,3xpp2[4:1],,1<6[8:1],,,,8xw4b[8:1],,,,
{16}
8x/6bx,,,1b/3x,,,2/7,,4x-8[8:1]b/5x-1[8:1]b,,,,,,,,
{16}7x,5,6,5,8x,4,5,4,7x,5,6,5,8x,4,5,4,7<4[8:1],,5x,,3,,1,,8<5[8:1],,6x,,4,,2,,
{16}1x,4,3,4,2x,5,4,5,8x,4,3,4,1x,5,4,5,2>5[8:1],,4x,,6,,8,,1>4[8:1],,3x,,5,,7,,
{16}2x,6,4,5,1x,4,3,5,2x,6,4,5,1x,4,3,5,2,,6,6x/5x,,8xqq6[8:2]/7,,2xpp4[6:1],,,,,,,,,
{16}7x,3,5,4,8x,5,6,4,7x,3,5,4,8x,5,6,4,7,,3x,4,1h[32:1],,3x,4,1h[24:1],,3x,4,1h[16:1],,3x,4,
(140)
{4}1<2[4:8],E1,E2,E3,E4,E5,E6,E7,E8,E1,E2,
{8}D3,E4,C,,E2,,D7,E6,C,,E8,,E5,,D4,D6,D2,D8,B3,B6,E5,,
E
