&title=W.E.I.R.D. (WARNING: Extremely Insane Rave Detected!!!!!)
&artist=Normal1zer vs. DJ Noriken
&first=0.011
&des=你问我ddl那天下午赶稿写的怎么样,我说写爽了
&clock_count=4
&lv_5=14+
&des_5=
&inote_5=(170)
{1},
{8},
{32}1bV38-4[4:5],82,73,64,
{4}5,,,,
{16}B7,,,E7,,,,,,5,,,5,,,,6V85-1[4:5],,,6,,,,,,,,,,,,,B3,,,E3,,,,,,4,,,4,,3,,8<4q1[4:5]/2,,,,,,,,,,,,,,,,A2,,,A3,,,,,,4,,,4,,,,8z4[4:2],,,8,,,,,,,,,,,3-8b[8:1],,5h[8:5],,,,,,,,,,1bx>3p6[4:3],,,,
{8}7h[8:1],,7h[8:1],,5h[8:1],,5h[8:1],,6-1[8:1],,3-8[8:1],,7-4[8:1],,7/2x>5p8[4:3],,1h[8:1],,1h[8:1],,7h[8:1],,7h[8:1],,6-1[8:1],,2-5[8:1],,7-4[8:1],,73,,2,24,2,28,7,71,7,75,3,42,6,57,4,35,5,64,
{16}7,1,6,2,8,2,7,3,
{32}8,7,6,5,4,3,2,1,8,7,6,5,4,3,2,1,
{8}8-4[8:1],,4pp6[8:1],,3>8b[8:1],,5b,,7bh[8:1],8,7h[8:1],8,6h[8:1],5,6h[8:1],5,4-8[8:1],,3-1[8:1],,4-8[8:1],,3,,2h[8:1],1,2h[8:1],1,3h[8:1],4,3h[8:1],4,5-1[8:1],,6-8[8:1],,5-1[8:1],,6,,7h[8:1],8,6xh[8:1],5,7h[8:1],8,6xh[8:1],5,7-4[8:1],,1-5[8:1]/7x,,1x/6<2b[8:1],,,,3h[8:1],4,2xh[8:1],1,3h[8:1],4,2xh[8:1],1<5p4b[4:2],,,,,,,1b,,24,3,75,6,14,3,7/4-7[8:1],5,4-1[8:1]/3,,4-8[8:1]/5,,4qq2[8:1]/3x,,7x,,75,6,24,3,85,6,2/5-2[8:1],4,5-8[8:1]/6,,5-1[8:1]/4,,5pp7[8:1]/6x,,2x,,1/3h[8:1],,7/3h[8:1],,3h[8:1]/5,,3h[8:1]/2,,6h[8:1]/1,,6h[8:1]/4,,6h[8:1]/7,,6h[8:1]/3,,2b,28,7b,64,
{16}3,4,2,5,1,6,8,7,8b-4-1b[4:2],,
{8},,,7-3[8:1],,7b,,1b,24,5,73,
{16}7,5h[8:1],,6,4h[8:1],,5,,8b,,75,,4,,26,,2,4h[8:1],,3,5h[8:1],,4,,7b,,64,,3,,51,,2,4h[8:1],,3,5h[8:1],,4,,2b,,35,,6,,84,,7,5h[8:1],,6,4h[8:1],,5,,7b,,64,,1,,25,,2,4h[8:1],,3,4,3,5,4,8b,,75,,3,,62,,7,5h[8:1],,6,5,6,4,5,1b,,24,,6,,73,,3,5h[8:1],,4,5,4,6,5,8b,,75,,3b,,64,,8b-4[8:1],,75,,8b/1b,,,,2b,,34,,8,,65,,1,4,3,4,1,4,3,4,1b,,4x/3x,,8,,65,,8,5,6,5,8,5,6,5,8b,,6x/4x,,2,,51,,2,4,3,5,4,6,5,,7-2[8:1],,8,,3-6[8:1],,4,,7-4b[8:1],,8,,73,,,,1,,2/4-1[8:1],,7,,64,,5<7[8:1],,1,,5x/2x,,3,,8,,7/5-8[8:1],,2,,53,,4>2[8:1],,8,,7/4x,,6,,1,7,2,6,2,8,3,7,
{32}1,2,3,4,5,6,7,8,1,2,3,4,5,6,7,8,1/5xw1b[4:1],,,,,,,,,,,,,,,,,,,,,,,,
{8}1-5[8:1]`1?-4b[8:1],,1b<2[4:6],,,,,,,,,,,,,,,,
{4}5>7[4:6],,,,,,,,3V57>2[4:6],,,,,,,,5-8[8:6],4,4,4,
{8}3,3,7,7,1,1,5-8b[8:1],,5b/4h[4:6],,
{4}E2,E1,E8,E7,E6,E5,E4,5h[4:6]/3,E8,E7,E6,E5,E4,E3,E2,5/4h[4:6],5,6,7,8,1,2-7[8:1],,75,64,53,24,1-5[8:1],5-1[8:1],5xqq3[8:1],1b<5b[8:1],
{16}1b,,3,,3,5,4,6,5,,7-4[8:1]/5,,8,,73,,2,,51,,5,4,6,5,7,,8-5[8:1]/5,,1,,
{32}8x/E4,B3,B2,E2,,,,,
{16}2x/5x,,2,4,3,,5-1[8:1],,6-8[8:1],,5,,6,,1,,82,,2,1,3,,
{32}8x,7x,6x,5x,,,2x,3x,4x,5x,,,7x,6x,5x,4x,2-5[8:1],,,,
{8}6,82,7,7-3[8:1],1,72,4,4-8[8:1],6,74,6,6-1[8:1],2,36,4,
{16}8,7,6,5,7,6,5,4,
{32}7,6,5,4,3,2,1,8,7,6,5,4,3,2,1,8,
{8}7-3[8:1],,3-7[8:1],,5pp6[8:1],,1>5b[8:1],,1b,,
{16}7,7,5,8,1,6,5,8,1<6[8:1],4,3,,1x/2x,,,,3,3,4,1,8,5,6,1,8-4[8:1],3,4,,7x/8x,,,,5,5,4,1,2,5,4,7,8>3[8:1],5,4,,6x/8x,,,,7,7,5,6,4h[8:1],,,4h[8:1]/1h[8:1],,,74,,1b/4b,,,,1,1,2,5,4,8,1,6,5>1[8:1],8,1,,7x/5x,,,,7,7,8,5,4,1,2,5,4<7[8:1],8,1,,2x/4x,,,,2,2,1,4,5,8,7,5,6<1[8:1],2,1,,6x/4x-8[8:1],,3,,7-4[8:1],,6,,1-5b[8:1],,2,,8b/1b,,,,
{8}7<4[8:1],3,7>2[8:1],3,7-5[8:1],4,7-1[8:1],2,7-4[8:1],3,7-1[8:1],8,7<4b[8:1],2,7b
,,2>5[8:1],6,2<8[8:1],7,2-5[8:1],5,2<7[8:1],7,2-4[8:1],5,2,8,8x-5[8:1]`4x-1b[8:1],73,8b/4,,1xh[8:1]/E4,,2h[8:1]/E5,,3h[8:1]/E6,,7h[8:1]/4h[8:1],,8xh[8:1]/E6,,7h[8:1]/E5,,6h[8:1]/E4,,2h[8:1]/5h[8:1],,
{16}1,8,2,7,3,6,4,5,
{32}1,2,3,4,8,7,6,5,2<4p3[8:5],3,4,5,7,6,5,4,
{8},,,,,,
{32}7bx,E7,B6,B5f,,,,,
{16}1,,24,,7,,65,,3,5,4,5,2,4,3,4,1,,35,,8,,75,,3,5,4,5,2,4,3,4,1q5[8:1],,5qq3[8:1]/2,,6,,7,,8,8,1,7,2,2,4,3,6<1[8:1],,1p5[8:1]/5,,6,,2,,4h[8:1],,,6h[8:1]/5h[8:1],,,24,,1>4[8:1],,4qq2[8:1]/6,,1,,5,,6,6,3,5,2,2,4,3,6<1[8:1],,5/1p5[8:1],,6,,3,,2,2,4,3,7,7,5,6,4q1[8:1],,8/1qq7[8:1],,4x/2x,,3,,4,4,7,5,6,6,
{32}2x,3x,4x,5x,
{16},,7b-4[16:1],,,3b-8[16:1],,,5b-1[16:1],,,2b,,,
{32}2x,3x,4x,5x,
{16}8-4[8:1],2,2,,8,,1-6[8:1],,3,,14,,5-1[8:1],,6,3,5,,4-7[8:1],,8,,64,,5-1[8:1],,2,,5,3,3,,8-4[8:1],,7,,81,,2-5[8:1],,7,,2,6,6,,74,,
{32}8x,7x,6x,5x,
{16}1b-4[16:1],,,6b-2[16:1],,,3b,,,,4h[16:1],,4h[16:1],,48,,6,,24,,3,,7q3[8:1],,3pp5[8:1]/8,,4x,,4x,,2x,,51,,3,,74,,8-3[8:1],,3p6[8:1]/6,,2x,,2x,,1,1,4,2,5,3,7,1,8,2,6,4,
{32}7,6,5,4,3,2,1,8,
{8}7b/3>2<1<8<7<6>5>4>3[4:2]`3?>3b[4:2],,,,,,8b-4b[8:1],,
{32}8bv1>2q7[4:8],B8,Cf,B4,
