&title=ドリアン爆弾(feat. Roon_kun)
&artist=Daily天利
&first=0.183
&des=Dasongbing
&lv_5=13+
&des_5=Dasongbing
&inote_5=
(190){4},{8},,,,,,E2,
{16}B2,B3,{8}E4,{16}E8,B7,{8}B6,{16}E2,B2,{8}B3,{16}B7,B6,
{1}3x/E6,
5>1[8:5],
4<8[8:5],
5V31[8:5],
{2}7h[2:1],5h[2:1],
{1}4q5[8:5],
2q3[8:5],
Ch[1:1],
{4}4h[4:1],5,{8}4/3,5,{4}6,
6h[4:1],5,5/4,{8}2,3,
{4}4h[4:1],5,{8}5/6,4,{4}3,
4h[4:1],3,{8}5/6,4,3,2,
{4}1h[4:1],8,{8}8/7,1,{4}2,
8h[4:1],{8}7,{16}1,1,{4}1,6h[4:1],
4h[4:1],5,{8}7/6,5,{4}4,
{8}E8,{16}B7,B6,{8}E6,{16}E2,B2,{8}B3,{16}B7,B6,{8}E6,E4,
{4}5,5/4,4,4/5,
5,5/4,4,5/4,
6,5/4,3h,5/4,
6h[8:1],4/5h[8:1],3h[8:1],4/5h[8:1],
5/4qq1[2:1],5,6,7,
1/8qq5[2:1],1,2,3,
{8}4/5,4,6/5,6,3/4,3,6/4,7,
{4}3b-7[8:1],4b-8[8:1],5b-1[8:1],6b,
{8}6h[8:1],5,6h[8:1],5,6h[8:1],5,6h[8:1],5,
7h[8:1],5,7h[8:1],5,7h[8:1],5,4/6,{16}4,5,
{8}3h[8:1],4,3h[8:1],4,3h[8:1],4,3h[8:1],4,
2h[8:1],4,2h[8:1],3,2h[8:1],4,2h[8:1],5,
{4}4/1-3[8:1],4,5h[8:1]/8-6[8:1],5h[8:1],
4/1-3[8:1],4,5h[8:1]/8-6[8:1],5h[8:1],
4/1-3[8:1],4,4h[8:1]/1-7[8:1],4h[8:1],
6b-2[8:1],5b-1[8:1],4b-8[8:1],3b,
6/5-8[8:1],5/4,{8}2/1,3,4/5,6,
7-4[0.1579##0.1579],7,1-5[0.1579##0.1579],1,8-4[0.1579##0.1579],8,2-5[0.1579##0.1579],2,
{4}8-5[8:1],7/8,{8}3-6[0.1579##0.1579],3,7-2[0.1579##0.1579],7,
4-1[0.1579##0.1579],4,8-5[0.1579##0.1579],8,{16}1h[8:1],,,8,{4}7b/2b,
3/4-1[8:1],5/4,{8}8/7,6,5x/4x,3,
{4}2-5[8:1],1x/2x,{8}7-4[8:1],8-3[8:1],7,8,
{32}7b,6,5,4,,,,,7b,6,5,4,,,,,8b,7,6,5,,,,,8b,7,6,5,,,,,{4}4-6[8:1]/3-7[16:3],
3-1[8:1]/4-8[8:1],4/3,{8}6,{16}4,5,
{4}3b-8[8:1],4x/3x,{8}5/6,7,8x/1x,3/4,
7-3[0.1579##0.1579],7,8x-4[0.1579##0.1579],8,1-5[0.1579##0.1579],1,2x-6[0.1579##0.1579],2,
{4}1b-4[8:1],8x/1x,{8}6-2[0.1579##0.1579],6,5x-1[0.1579##0.1579],5,
4-8[0.1579##0.1579],4,3x-7[0.1579##0.1579],3,8,8,{4}7b/2b,
8b-5[8:1],1x/8x,{8}3/4,2,1x/8x,6/5,
{4}4b-1[8:1],5x/4x,{8}8/7,6,5x/4x,2/1,
{4}8b-5[8:1],8x/7x,{8}3/4,2,1x/8x,6/5,
{4}7h[4:1],1h[4:1],{16}3,4,5,6,7,8,1,2,
{1}3bx,
{4},,,,,,,,5h[2:1],
{8},,,,4,3,
{2}2h[2:1],8h[2:1],
{4}1h[4:1],8q1>7[0.6316##1.8947],,C,
,,,,,,,,{1}2,
{2}4,5,
{4}7h[4:1],5h[2:1],,4q5[8:5],
,,,4h[4:1],
2h[4:1],1,,8,
{16},,,,6h[8:1],,,4,{4}3,3h[2:1],
,5p4>1p8<5[2:3],,,,,,,4b,
5,{8}5/4,4,{4}5/4,
6/5,4/3,{8}5/4,5,{4}5/4,
2>4[4:1],{8}5/2,6,{4}7,7/4,
6/4,5/3,{8}4/2,6,5/4,3,
{4}4/5-8[2:1],4,3,2,
{8}8/1-4[2:1],8,7,7,6,6,5,5,
{16}4,5,4,5,4,5,4,5,4,5,4,5,4,5,4,5,
{8}E2,{16}B7,B6,{8}E6,{16}E2,B2,{8}B3,{16}E8,B7,{8}B6,{16}B2,B3,
{4}5b-7b[8:1],{8}4/5-2b[8:1],3,6/5-8b[8:1],7,4/5,3,
2/1,8,5/6,4h[8:1],,6,7/8,6,
{4}5/4-2[8:1],{8}4/5,6,{4}5/4,4/6-8[8:1],
{8}5/6,4,{4}5/6-8[8:1],6,{16}5,4,3,2,
{4}1b-7b[8:1],{8}2/1-4b[8:1],3,8/1-6b[8:1],7,1/2,3,
2/1,8,5/4,3h[8:1],,2/1,3,5/4,
{4}6h[4:1]/5-2[8:1],5,6h[4:1]/5-8[8:1],5,
{16}5,,,4,{8}5,4,4/5,4/5,4/5,4/5,
{4}4b-2b[8:1],{8}5/4-7b[8:1],6,3/4-1b[8:1],2,5/4,6,
7/8,1,4/3,5h[8:1],,3,2/1,3,
{4}4/5-7[8:1],{8}5/4,3,{4}4/5,5/3-1[8:1],
{8}4/3,5,{4}4/3-1[8:1],3,{16}6,2,7,1,
{4}8b-2b[8:1],{8}7/8-5b[8:1],6,1/8-3b[8:1],2,8/7,6,
7/8,1,4/5,6h[8:1],,4/3-8[8:1],4,3,
,,5/6-1[8:1],5,{4}6,5/6,
{8}4/5,6b/3b,,8/1,{4}2b/7b,{8}5/4,5/4,
{4}4b/5bp1[4:1]*q1[4:1],,,1-7[8:1]*-3[8:1],
1b-5[8:1],1,1/8-6[8:1],8/4,
8/1-3[8:1],1/4,1/8-6[8:1],8/4,
8/1-3[8:1],1/4,1/8-4[8:1],{8}3/8,2,
{4}8/1,6/4-2[8:1],4/8,6/5-1[8:1],
5/8,5/4-8[8:1],7/4,5/3-1[8:1],
3/7,{8}5/4,6,8/7,1,{4}4/3,
{16}5-1[8:1],,,6,{8}5bx,6,{16}4,,,3,{8}4bx,3,
7/8>4[8:1],6,{4}8x,{8}2/1<5[8:1],3,{4}1x,
{8}7/8>4[8:1],6,{4}8x,{8}6h[8:3],5,4,3,
5,4,4/5,3,3h[8:3],4,5,6,
6h[8:3],5,4,3,2/1<5[8:1],3,{4}1x,
{8}7/8>4[8:1],6,{4}8x,{8}2/1<5[8:1],3,{4}1x,
{8}6h[8:3],4,5,4,3h[8:3],6,5,4,
6/5,4,6/5,3,5/4,6,5/4,3,
2/1,4,6/5,4,8x,8x,1x,1x,
{1}Cf,
E
