&title=【音】晴る
&artist=ヨルシカ
&first=0.06
&des=YOR
&lv_7=14?
&des_7=YOR
&inote_7=
(102){4},{8},8?-6[16:1],1?-5[16:1],,,1?-3[16:1],
8?-4[16:1],,,7?-5[16:1],8?-4[16:1],,,2?-4[16:1],
1?-5[16:1],,,8?-4[16:1],1?-3[16:1],,,1?-5[16:1],
2?-4[16:1],,,8?-4[16:1],7?-5[16:1],,,1$,
2$,3h[8:3],{4}B7,{8}5$,6$,{16}7h[16:3],,,1$,
3$/1?<5[8:1],2$,{8}4$,{4}C,{8}4$,3$/2$,{16}2$/1$,,,7$,
{8}6$/7$,6$/5$,{4}5$/4h[4:1],{8}2$,1$,{16}8h[16:3],,,5$,
6$/8?>4[8:1],4$,{8}5$,{4}C,{8}5$,6$/7$,{16}8$/7$,,,2$,
{8}2$/3$,3$/4$,{4}4$/5h[4:1],{8}8-4[16:1],7$/6$,{16}8$/1$,,,3$,
5$/8?<5[8:1]/1?>4[8:1],4$,{8}6$,{4}8$/1$,{8}1-5[16:1],2$/3$,{16}8$/1$,,,7$/5$,
{8}7$/5$,4$/3$,{32}4$/3$,2$,1$,8$,7$,6$,5$,4$,{8}3h[4:1],6$,{32}6$,7$,8$,1$,2$,3$,4$,5$,
{16}6h[4:1],3$,{8}3$,{32}1$,2$,3$,4$,5$,6$,7$,8$,{8}1h[4:1]/8?-5[16:1],7$,{48}E2,B2,B3,E4,,,,,,{16}3$,
3$,5$,{8}5$,{4}4$/6h[4:1],{8}1$,2$/4$,{16}5$/3$,,,6$,
6$,4$,{8}4$,{4}5$/3h[4:1],{8}8$,7$/5$,{16}6$/4$,,,3$/4$,
{8}3$/4$,2$,{4}1h[4:1],{8}7$,6$/4$,{16}5$/3$,,,2$,
2$,8$,{8}8$,{4}1$/7h[4:1],{8}5$,4$/2$,{16}3$/1$,,,8$/7$,
{8}8$/7-4[16:1],6$/5$,{4}7$/8$,{8}4$/3-8[16:1],2$/1$,{16}4$/3$,,,6$,
4$/8?<5[8:1]/1?>4[8:1],5$,{8}3$,{4}1$/8$,{8}2>5[16:1],8$/7$,{16}2$/1$,,,6$,
{8}7$,1$/8$,{16}1h[16:3],,,7$,5$,6$,3$,4$,2$,8$/7$,,2$,
4$,3$,6$,5$,{8}7$/4$,{16}1$/2$b,2$/1$,,8$/7$b,{8}8$/7$,{16}5$b/4$b,5$/4$,,3$,
4$,5$,{8}6$/Ch[4:3],,,,,,8-5[16:1]*-3[16:1],
,8$b/Cf,{32},,,,8$/1$,7$,6$,5$,4$,3$,2$,1$,4$/8$,5$,6$,7$,8$,1$,2$,3$,4$/8$bx,7$,6$,5$,
4$/8$bx,1$,2$,3$,{8}4$/8bxh[8:3],E2/A2/B2/E3/1?<3[8:1],B7/E7/A7/B6,{4}A1f,{48}A1,E1,E8,A7,,,A2/8?w4b[16:1],B2,B6,A6,,,A3,
E4,E5,A5,,,{8}8$bx/Cf,{16}2-4-8[8:1],4$,1$,5$,{4}2$,{16}6-1[16:1],4$,5$,3$,
{8}6$,{16}2$,3$,4$/7$,6$,5$/3$,2$,1$/5$,6$,{32}8$,7$,{16}8$,{32}6$,1$,{16}6$,5$/2$,{32}3$,4$,
3$/2?-5[16:1]/5?-1[16:1],4$,{16}3$,{8}5$b/2$b,{16},,7$,1$,8$,2$,{8}7h[8:1],{16}4$,5$,{8}3h[8:1],
{16}6$,5$,{8}8-4[16:1],1-5[16:1],8w4[16:1],1$,8$,2$/1$,8$/7$,
{4}5$/4-2-8-6[16:3],{8}6$,5$,{4}4>6b[16:3],{8}5$,{32}4$,3$,2$,1$,
8$,7$,6$,5$,{8}4h[8:1],{16}8$,8$,1$,1$,2$,2$,3$,3$,4$,4$,{8}5$/6$/1?-6[16:1]/2?-5[16:1],
8$/7$,1$b/2$b,{16},,6-4-8[8:1],4$,5$,3$,{8}6$,{16},,2-5[16:1],8$,
1$,7$,{8}2$,{16}8$,7$,6$/2$,3$,{8}4$/7h[8:1],{48}E3,B3,B4,E5,,,E7,B7,B8,E1,,,E3,B2,B1,E1,,,E7,
B6,B5,E5,,,{8}Cf,{16}6$/5$,6$/5$,4$/7$,7$/4$,{32}3$/8$,1$,2$,3$,4$,5$,6$,7$,{8}4-1[16:1]/8-5[16:1],5$/1$,
8$/4$,{16}7$/3$,6$,5$,4$/1$,2$,3$,4$/7$,8$/3$,{32}2$,1$,{16}2$,{32}8$,3$,{16}8$,7$/4$,{32}5$,6$,
5$/7?-4[16:1]/4?-8[16:1],6$,{16}5$,{8}7$b/4$b,{16},,2$,8$,1$,7$,{8}2h[8:1],{16}6$,5$,7>6[16:5],4$,
6$,5$,{8}7$/1$,B4/8?w4b[16:1],B1/B2,{4}A8f,{8}3xh[4:1]/E1/B8,E7/B6,
{32}E5,E4,E3,E2,E1,E8,E7,E6,{8}5xh[4:1]/E5/B4,E3/B2,{32}E1,E8,E7,E6,E5,E4,{16}E3,{32}6$,5$,{16}6$,4$/7$/1?-5[16:1],3$,
2$/6$,7$,{8}8$/1$b,,7?-5[16:1],8?-4[16:1],,,2?-4[16:1],
1?-5[16:1],,,8?w4b[16:1],,Cf/B7/B6/B2/B3/E3/E7,
E
