&title=Super Nova Project
&artist=shadow_bling
&first=0.069
&des=Fanchy
&lv_5=14
&des_5=Fanchy
&inote_5=
(172){4},,,,{2}5h[2:1],
{8}6h[8:3],,,7qq1[8:7],
,,,,,,,,{2}2h[2:1],
{8}3h[8:3],,,4qq7[8:7],
,,,,,,,,{2}5h[2:1],
{8}7h[8:3],,,1>7q1[8:15],
,,,,,,,3q5b[8:7],
,,,,,,,,,,,,,,,,{4}7/3qq4[2:1],
7,6,6,
3/5pp4[2:1],3,2,2,
5/1pp8[2:1],5,6,6,
1/5p4[2:1],1,2,3,
4/8-4[16:3],3,2-5[16:3],6,
7-4[16:3],3,{8}1>5[8:3],,,5<1[8:3],
,,{4}1z5b[4:3]*s5b[4:3],,,,,,,2/8,
5/3h[8:1],5/2h[8:1],1h[8:1]/5-7[12:1],
4,3/7h[8:1],2/6h[8:1],5h[8:1]/2-4[12:1],
8,5/4h[8:1],5/6h[8:1],4/3h[8:1],
5/7-4[8:1],7/3,2-5[8:1],2/6,
7/3,8/2h[8:1],8/3h[8:1],4h[8:1]/8-6[12:1],
1/8,5/3h[8:1],5/2h[8:1],1h[8:1]/6-8[12:1],
6/4h[8:1],1/3h[8:1],2/5h[8:1],8/6h[8:1],
5/3>7[4:1],7-3<5[4:1],{2}5-8b[8:1]*-2b[8:1],
{4}7/3bx-8[8:1],3bx/5x,{16}6h[16:1]/8h[16:1],,,5h[16:1]/1h[16:1],,,{8}4h[8:1]/2h[8:1],
,1bx/5x,{4}3bx/7x,{16}1h[16:1]/3h[16:1],,,8h[16:1]/4h[16:1],,,{8}7/5,
{4}4x/8bx-4[8:1],2x/8bx,{16}4h[16:1]/2h[16:1],,,1h[16:1]/5h[16:1],,,{8}8h[8:1]/6h[8:1],
,7bx/3x,{4}5bx/1x,{16}7h[16:1]/2h[16:1],,,3h[16:1]/6h[16:1],,,{8}4/5,
8b/1b,{16}2,2,{8}4h[8:1],{16}3,3,{8}5h[8:1],{16}4,4,{8}6h[8:1],{16}5,5,
{8}8b,{16}7,7,{8}5h[8:1],{16}6,6,{8}4h[8:1],{16}5,5,{8}3h[8:1],{16}4,4,
2b,5,2,5,1,6,1,6,2b,5,3,7,4,6,2,5,
{4}3>7[4:1],7-3<5[4:1],{2}5-8b[8:1]*-2b[8:1],
{1}B7/E7/B6/B2/B3/E3/Cfh[4:7],
{4},,,,4/8-6[12:1],
8/2-4[12:1],{16}2/5,,,5,{8}4-8[8:1],6,
{4}4/7-5[12:1],7/1-3[12:1],{16}1/4,,,5,{8}4,6h[8:1],
{4}1-3[12:1],1/7-5[12:1],{16}7/4,,,4,{8}5-1[8:1],3,
{4}5/2-4[12:1],2/8-6[12:1],8/5h[4:1],E2f/B1/B2,
8/4-2[12:1],6/4,{16}1/2-5[8:1],,,8,{8}2,7h[4:1],
{16},,5b,5,{8}6h[8:1],4,{16}3/7-4[8:1],,,2,{8}7,1,
{1}4bh[8:7]/8bh[8:7],
{8}1/5h[8:1],1,6/2h[8:1],6,{4}3-1[16:1]/7-5[16:1],3/7,
5/2-6[8:1],2/7-5-1[16:3],{16}7/4,,,3,,,{8}2/1h[4:1],
{16},,2,2,{8}8-4-6[16:3],3,{16}8/3,,,1,,,{8}1/7,
{4}2/6v1[8:1],6/2-4-8[16:3],{16}2/7,,,6,,,{8}7/8h[4:1],
{16},,7,7,{8}1-5-3[16:3],6,{4}1/6-2b[8:1],6b,
{8}1/3,3/1,4/8,{16}7h[8:1],5,,3h[8:1],{8}4,2/5,1,
8/6,8/6,5/1,{16}2h[8:1],4,,6h[8:1],{8}5,7/4,8,
{16}2b,2,1,3,7b,7,8,6,3b,4,2,6b,5,7qq8[16:7],{8}3bqq4[8:3],
{16},,,,,,,,,,,,3,7,3,7,
{8}2b-4[12:1],6h[8:1],{16}2-8[12:1],,,7,{8}2-4[12:1],5h[8:1],2,6,
7b-5[12:1],{16}3,3,7-1[12:1],,,2,{8}7-5[12:1],3h[8:1],7,{16}2,4,
{8}2b-4[12:1],6h[8:1],{16}2-8[12:1],,,7,{8}2-4[12:1],5h[8:1],2,6,
7-2[8:1],7,4-1[8:1],4,8-5[8:1],8,3,2,
1b-3[12:1],5h[8:1],{16}1-7[12:1],,,6,{8}1-3[12:1],4,1,5,
8b-6[12:1],{16}4,4,8-2[12:1],,,3,{8}8-6[12:1],4h[8:1],8,{16}3,5,
{2}3b-8[8:1],7b-4b[8:1],
{1}1bw5b[8:5],
{4}3h[8:15],5h[8:3],{8},,,5,
,6,,7,,8,,1,
{4}3-6[8:1]/7-2[8:1],3/7,{8}8-3[8:1],4,8-5[8:1],{16}4,4,
{8}8-3[8:1],{16}4,4,{8}8<5[8:1],{16}4,4,{8}8,{16}3,3,{4}8,
6h[8:1]/2h[8:1],{8}3/5,6/2,{16}7/1b-5[16:1],,,7b-4[16:1],,,{8}3b,
,5/2,6/4,3/7,{16}2/8b-4[16:1],,,2b-5[16:1],,,{8}6b,
{4}8h[8:1],{8}3/5,6/2,{16}7b/1b-5b[16:1],,,1b/7b-4b[16:1],{32},,,,3b/7b,E3,B2,B1,
{1}E1f/D1/A8,
{64}6x`B2,5xh[64:31],{4},{16},,,{32},{8}2h[8:3],,,1pp7[4:3],
{1},{64}3x,
4xh[64:31],{4},{16},,,{32},{8}6h[8:3],,,8qq2[4:3],
{1},{64}6x,
5xv8[4:1],{4},{16},,,{32},{64}3x,4xv1[4:1],{4},{16},{32},6x,5xh[32:19],,,,,,,,,,,,,,,,,,,{8}1>5[8:3],
,,5<1[8:3],
,,{4}1z5b[4:3]*s5b[4:3],{8},,,,,,,,,,,,6h[8:1],
3,6h[8:1],4,6h[8:1],5,6v4[4:1],7h[4:1],
,,{4}8h[8:1],1h[8:1]/4h[8:1],2h[8:1]/4h[8:1],
{8}1h[8:1],4,1h[8:1],3,1h[8:1],2,1v4[4:1],8h[4:1],
,,{4}7h[8:1],6h[8:1]/4h[8:1],5h[8:1]/3h[8:1],
{8}3h[8:1],4,3h[8:1],2,5h[8:1],4,5h[8:1],6,
3h[8:1],4,3h[8:1],1,3qq6[8:3],,,6<5[2:1],
,,{4}Cfh[2:3],,,5,
4,3,2,
6/1V35<6[4:1],6<3[4:1],{8},5,{4}A8/E8/B8,
3/8V64>3[4:1],3>6[4:1],{8},4,{4}A1/E2/B1,
6/1V35<6[4:1],6V42<1[4:1],{8},7,{4}A5/E5/B5,
3/8V64>3[4:1],{8}3V57>8[4:1],2,,2,{4}A4/E5/B4,
4/7V13<4[4:1],4V28<7[4:1],{8},5,{4}A3/E3/B3,
5/2V86>5[4:1],5V71>2[4:1],{8},4,{4}A6/E7/B6,
{8}7/3h[4:1],7,7,4/8h[16:5],4,{16}4,4,{8}1bxh[16:15],5bxh[16:13],
{4},,,{32}5/1,4/8,3/7,2/6,{8}1/5,
{4}Cf/E7/B7/B3/E3,{8}3x/E7/B6,3,2/B8/B7,2,1/E7/B6,1,
B8/B7,3,3/E7/B6,3,2/B8/B7,2,3/E7/B6,3,
{4}5x/B1/B2,{8}6/E3/B3,6,7/B1/B2,7,8/E3/B3,8,
B1/B2,6,6/E3/B3,{16}8,7,{8}6/B1/B2,6,5/E3/B3,5,
4/6,6/4,7/3,{16}6,6,{8}4,5/2,5/2,{16}3,3,
{8}7/1h[8:1],7,2/8h[8:1],2,3/4,1,6/5,7,
{16}4,8,3,7,2,6,1,5,2,6,3,7,4,8,5,1,
{4}5w1b[1.0465##0.1744],,,Cf,
8/2-5[8:1],{8}2/8-4[8:1],7,8/1>6[4:1],2,1/6v4[8:1],8h[4:1],
,,3/8-4[8:1],3,2/8-6[8:1],2,8/1,1,
{4}8/7-4[8:1],{8}7/1-5[8:1],2,1/8<3[4:1],7,8/3v5[8:1],2h[4:1],
,,1-5[8:1],{16}6,6,{8}1-3[8:1],7,1,8,
{4}1/2-5[8:1],{8}2/8-4[8:1],7,8/1>6[4:1],2,1/6v3[16:3],8h[4:1],
,,8-4[8:1],3,2/8-6[8:1],2,8/1,1,
{4}8/7-5[8:1],{8}7/8>3[8:1],1,8,{24}4-8b[8:1],5,6,{8}7,4b/E7f/B7/B6,
,,1-5[8:1],{16}6,6,{8}1-3[8:1],7,1,8,
{4}3b/7b-4[8:1],{8}7/1-5[8:1],2,1/8V64[4:1],7,8/4v7[8:1],2h[4:1],
,,6/1-5[8:1],6,7/1-3[8:1],7,1/8,8,
{4}1/2-5[8:1],{8}2/8-4[8:1],7,8/1V35[4:1],2,1/5v2[8:1],7h[4:1],
,,8-4[8:1],{16}3,3,{8}8-6[8:1],2,8,1,
{4}8/7-4[8:1],{8}7/1-5[8:1],2,1/8V64[4:1],7,8/4v7[8:1],1h[4:1],
,,8/1-5[8:1],2,1/8-4[8:1],7,8/1,3,
{4}2b/7b,{8}4/5<8[8:1],3,5/2,{24}1w5b[8:1],2,3,{8}4,1b/Cf,
,,4-8[8:1],{16}7,7,{8}4-2[8:1],6,4,{16}5,5,
3,7,3,7,2,6,2,6,1,2,3,4,5/1,6,7,8,
5,1,5,1,6,2,6,2,8,7,6,5,4/8,3,2,1,
4,8,4,8,2,1,2,1,5,6,5,6,2,4,2,4,
{8}1/5,1/5,6/2,{16}3,4,{8}3-8b[16:1],5,{4}3b/7b,
{16}6,2,6,2,8,3,8,3,5,6,7,8,1/5,2,3,4,
1,5,1,5,3,7,3,7,5,4,3,2,1/5,8,7,6,
4,8,4,8,3,7,2,6,1,5,2,6,3,7,4,8,
{8}3>7b[4:1],3,7-3<5b[4:1],7,{2}5-8[8:1]*-2[8:1],
{32}8/1,7/2,6/3,4/5,,,,,1,2,{16}3,{8}5h[8:1],{32}1,2,{16}3,{8}6h[8:1],{32}2,3,{16}4,{8}7h[4:1],
3-8[8:1],2,7-4[8:1],6,2,1,6/2,7/3,
{4}8b/4bh[8:1],{32}8,7,{16}6,{8}4h[8:1],{32}8,7,{16}6,{8}3h[8:1],{32}7,6,{16}5,{8}2h[4:1],
4-7[8:1],5,4-1[8:1],3,{4}8w4b[8:1],8b,
{32}8,7/1,6/2,5/3,{8}4,{32}1,2,{16}3,{8}5h[8:1],{32}1,2,{16}3,{8}6h[8:1],{32}2,3,{16}4,{8}7-1b[8:1],
{32}1,2,{16}3,{8}7b-5b[16:1],{32}2,3,{16}4,{8}7b-1b[8:1],{32}1,2,{16}3,{8}7b,{32}2,3,{16}4,{8}7,
{4}6b/E1f/B8/B1,{8}7/8b,4b/3,6/5b,{16}2/1b,1/2b,{8}2/1b,7b/3,
{32}1b,8,7,6,{8}5/3h,{32}1b,2,3,4,{8}5/7h,{32}8b,7,6,5,4,3,2,1,8b-3[12:1]/4b-7[12:1],7/3,6/2,5/1,,,,,{1}4b/8b/Cf/E6/E2,
E
