&title=Battle Against a True Hero
&artist=Toby Fox
&first=0
&des=Youters
&lv_5=13+
&inote_5=(150){1},
{16}7h[16:2],,,5h[16:2],,,6h[16:3],,,4h[16:3],,,5h[16:2],,3,,
{16}2h[16:2],,,4h[16:2],,,3h[16:3],,,5h[16:3],,,4h[16:2],,6,,
{16}7h[16:2],,,4h[16:2],,,6h[16:3],,,3h[16:3],,,5h[16:2],,2,,
{16}2h[16:3]/4,,,6h[16:3],,,3h[16:3],,,8h[16:5],,,2h[16:2],,,,
1V72[4:6],,,7,,,6,,,6,,,5,,5,,4,,,4,,,3,,,3,,,4,,4,,
5V36[4:6],,,6,,,7,,,7,,,8,,8,,1,,,1,,,2,,,2,,,2,,{24}1,8,7,
{16}6V48[4:6],,,7,,,8,,,8,,,1,,1,,2,,,2,,,3,,,3,,,4,,4,,
4-8[4:3],,,7,,,6,,,6,,,5,,5,,
{16}4qq4[4:2]*pp4[2:1],,,4,{4},,,
{16}7b,8,7,8,6-1[8:1],5,6,5,,4,4,,3,,12,,
{16}2,1,2,1,3-8[8:1],4,3,4,,5,5,,6,,27,,
{16}8,1,8,1,6^1[8:1],5,6,5,,4,4,,3,,82,,
{16}35,,2,4,,7,5,8,,2,1,3,8,4,7,5,
{16}6,4,7,5,6-2[8:1],4,7,5,,4,4,,1,,38,,
{16}2,8,3,1,2-6[8:1],8,3,1,,7,7,,8,,71,,
{16}7,8,6,1,7-4[8:1],8,6,1,,2,2,,1,,25,,
{16}64,,7,5,,2,4,1,,7,8,6,1,5,2,4,
{16}3b,5,4,7,5-1[8:1],6,3h[16:3],5,,,,,2,,78,,
{16}6,4,5,2,4-8[8:1],3,6h[16:3],4,,,,,7,,21,,
{16}2,4,3,7,5^8[8:1],6,3h[16:3],5,,,,,12,,34,,
{16}7b-4[16:1]/8b,,,1-5[16:1]/7,,,1b/6b-2[16:1],,,4w8[16:1]/6,,,4b,,,,
{16}2,8,1,6,8-4[8:1],7,2h[16:1],8,,2,2,,3,,65,,
{16}7,1,8,3,1-5[8:1],2,7h[16:1],1,,7,7,,6,,34,,
{16}3,1,2,6,8,7,2,4,3,6,5,7,2,,35,,
{16}6b-1[16:1],,,4b-8[16:1]/6b,,,4b/7b-3[16:1],,,1bw5[16:1]/7b,,,1b,,,,
{16}8b<4[16:3],,,4v7[16:2],,,1pp4[8:9],,1,,,,8,,,,7-5[12:1],,8,,7,,,,7,,8,,7-3[8:1],,5,,
7pp6[8:9]/4^2[8:1],,5,,4,,,,4^2[8:1],,5,,4,,,,3^1[8:1],,4,,3,,,,
1-5[8:1],,5-1[8:1],,6pp2[16:24]/1^4[8:1],,6,,6,,,,5,,4,,5-3[12:1],,4,,5,,,,3,,4,,3,,4,,3^8[8:1],,4,,3qq8[8:12]/5-7[12:1],,,,
5,,,,7,,6,,7-4[8:1],,6,,7,,,,4,,5,,4,,5,,4-8[8:1],,5,,4,,2,,
{16}1b>5[16:3],,,5v2[16:2],,,8qq5[8:9],,8,,,,1,,,,2-4[12:1],,1,,2,,,,2,,1,,2-6[8:1],,4,,
2qq3[8:9]/5^7[8:1],,4,,5,,,,5^7[8:1],,4,,5,,,,6^8[8:1],,5,,6,,,,
8-4[8:1],,4-8[8:1],,3qq7[16:24]/8^5[8:1],,2,,3b,,,,4,,5,,4-6[12:1],,5,,4,,,,6,,5,,6,,5,,6^1[8:1],,5,,6bpp1[8:12]/4-2[12:1],,,,
4b,,,,2,,3,,2-5[8:1],,3,,2,,,,5,,5,,4,,4,,4,3,2,1,8-4[16:38],7,6,5,
{4}4b,,,{24}7,6,5,,,,{4},,{24}7,6,5,,,,{4},,{24}7,6,5,,,,{4},,
{24}1-5[8:17],2,3,4,,,{16},,,,,,,,{24}2,3,4,,,,{16},,,,,,,,{24}2,3,4,,,,{16},,,,,,,,{24}2,3,4h[24:10],,,,{16}6,,,,8,,,,
{24}38,7,6,54,,,{16}3,,4,,3,,4,,{24}2/7,6,5,,,,{16}2,,3,,2,,3,,{24}1h[4:1]/7,6,5,,,,{16},,3,,,,,,{24}2h[4:1]/7,6,5,,,,{16},,2h[4:1],,,,,,
{24}62,3,4,5,,,{16}6,,5,,6,,5,,{24}7/2,3,4,,,,{16}7,,6,,7,,6,,{24}8h[4:1]]/2,3,4,,,,{16}6,,,,1,,,,{24}7/2,36,45,,,,{16}1h[8:3],,,,8h[8:1],,,,
{8}2b-5[8:1]/7,1,7^4[8:1]/2,8-4[8:1],7-3[8:1],8,7,2-8[12:1],7,2-4[12:1],5,2,7^2[8:1],6,5,4^7[8:1],3,2,1^4[8:1],8,7,6^1[8:1],5,4,
{8}3-8[8:1],4,6^1[8:1]/3,5-1[8:1],6-2[8:1],5,6,3-5[12:1],6,3-1[12:1],8,3,7-4[8:1],6,7/3^8[8:1],2,37,8{24}7,6,5,4qq1[4:2],,,{8},5,5,6,6,
{8}7b-4[8:1],8,2^5[8:1]/7,1-5[8:1],2-6[8:1],1,2,7-1[12:1],2,7-5[12:1],4,7,2-7[8:1],3,4,5-2[8:1],6,7,8-5[8:1],1,2,3-8[8:1],4,5,
6bV85[8:2],,6,4,3,2,1^4[8:1]/5^8[8:1],,1p5[8:1]/5p1[8:1],,1pp4[4:2]/5^8[8:1],,5,,7,7,6,6,
53,46,25,74,18,6b/3b,
