&title=ジュリエット
&artist=葉月ゆら
&first=0.06767677
&des=罗密欧与猪过夜
&lv_5=12
&inote_5=(131){4},8/3h[4:1],,5h[8:3],
,2h[4:1],4h[4:1],{8}8h[8:1],6h[4:1],
,,{4}1h[4:1],,5h[2:1],
,3h[4:1],{8}6,7,{4}7-2[8:1],
7/4,1b/5b>2[8:1],7h[8:1],{8}6,5,
4<7[8:1],{16}1,1,{8}4,2,3,4/7,8,8,
6/2,{16}3,5,{8}4,{16}6,4,{8}5,{16}3,4,{8}1>4[8:1],1,
8,8,{4}5bpp4[8:3]/7bpp3[8:3],,,8/1,
5/2>5[8:1],6h[8:1],{8}7,7,
8<5[8:1],{16}4,4,{8}8,3,{4}3h[4:1],{8}4pp5[4:1],2,
{4}2,4qq2[8:1],7<4[8:1],3>8[8:1],
{8}5,5,6pp5[4:1],4qq5[4:1],,,,,{4}8h[4:1],
5>2[8:1],7h[8:1],{8}6,5,
4<7[8:1],{16}2,2,{8}4,3,2,8-5[8:1]*-3[8:1],{4}1/7,
{16},,4,5,{4}3qq4[4:1],{8}4,5,{4}6pp5[4:1],
{8}5,4,3,3,2/4,{16}1,8,{4}1>5[8:1]*qq7[8:1],
1b,8qq5[2:1],5,3,
{8}1pp4[2:1],1,{4}4,6,{8}8,8,
4,4,{16}6h[16:3],,,5,{8}7,2h[8:1],4,4h[8:1],
1,1h[8:1],{4}3<8[4:1],{16},,1,2,{4}3h[4:1],
{16}1,2,1,2,{8}8-5[8:1],7,4>1[8:1],3,7,6,
5<8[8:1]*>2[8:1],2,{4}5,{8}2/8,{16}3,7,{8}5>2[8:1],4,
8<5[8:1],7,{4}1q6[8:1]*p4[8:1],1,{8}2/8,8/2,
7/3,3/7,{4}6<8[8:1]/4>2[8:1],4/6,{32}1,2,3,4,{16}5,7,
7,3,3,6,6h[8:1]/4h[8:1],,,3h[8:1]/7h[8:1],,,{8}2/8,{4}1w5[8:1],
1b,4b<7[8:1]*>2[8:1],4qq3[16:3],{8}7,7,
8<5[8:1],3>8[8:1],8,3,4,{16}8-4[12:1]/5-7[12:1],8/5,,,,,,,{8}4>1[8:1],
4,{16}7,6,{8}5,{16}3,4,{8}2pp4[8:1],6<1[8:1],
2,6,4,{16}2,1,{8}3,4/8,{16}3,7,1,5,
{8}3h[8:1],{16}6,4,{4}5<7[8:1]*>2[8:1],5bpp6[16:3],{8}2,2,
1>4[8:1],6<1[8:1],1,6,5,{16}4-2[8:1]/1-5[8:1],1/4,,,,,,,6,
5,{8}7<4[8:1],{16}1,1,{8}7,8>3[8:1],{16}5,5,{8}8,
6,6,3/7,{16}2,1,3,8,4,7,5,6,3,4,
2,5,1,6,{4}8bpp4[8:5],4,5,
6,{8}7,8,{4}1V74[8:3],3-8[8:1],
3,4pp8[8:5],8,1,
2,{8}3,4,{4}5pp7[8:1]*>2[8:1],5,
{16}1,6,1,6,{8}2b>4[8:1],3,5-8[8:1],6,2>5[8:1],3,
6-1[8:1],7,{4}2pp4[8:1]*p6[8:1],2,{8}7/3,3/7,
2/8,{16}3,4,{8}1h[8:1],{24}7,6,5,{8}4,{16}2,2,{8}6h[8:1],{24}1,2,3,
{8}4,6,{4}5<8[8:1]/2>5[8:1],2/5qq6[8:3],1<6[8:1],
1,{8}7b<5[8:1],6,4-1[8:1],3,7<4[8:1],6,
3-8[8:1],2,{4}7>3[8:1]*qq5[8:1],7,{8}6/2,2/6,
5/3,{16}4,6,{8}5h[8:1],{24}1,8,7,{8}6,{16}3,3,{8}4h[8:1],{24}8,1,2,
{8}3,{16}6,4,{8}5,{24}8/1,2/7,3/6,{8}4/5,7/2,{16}3,4,2,6,
5,7,{8}1,2/5,{16}7,8,{8}6,1/5,{16}3,4,{8}3,
8/2,2/8,{16}5,6,2,8,3,4,1,7,3,6,4,5,
{4}1-5[12:1],1b/8b,,,,6qq4[2:1]/3pp5[2:1],
,,,2pp4[2:1]/7qq5[2:1],
,,,2qq5[2:1]/7pp4[2:1],
,,,2>5[8:3],
5,6,
7,8<5[8:3],5,4,
3,2q5[2:1],5,6,
7,8bp5[2:1]*q3[2:1],{16},,,,,,,,,,2,
4,{4}3b>1[8:1]*<6[8:1],3pp2[4:1],{8}8,8,
7<4[8:1],1>4[8:1],7,1,7,{16}5qq3[8:1]/8<5[8:1],5/8,,,,,,,4,
6,{8}5>2[8:1],{16}7,7,{8}5,8,1<6[8:1],{16}3,3,
{8}1,4,5/7,{16}3,4,{8}2,1/8,{16}4,7,3,5,
{8}1h[8:1],{16}7,8,{4}6b>3[8:1]*<8[8:1],6qq7[4:1],{8}1,1,
2>5[8:1],8<5[8:1],2,8,3,{16}6pp5[4:1]/4qq5[4:1],6/4,,,,,,,,,{8}6/4<7[8:1],
{16}2,2,{8}4,8>3[8:1],{16}6,6,{8}8,
5,6,7/3,{16}2,1,{8}2,3/7,{16}6,4,5,2,
4,3,6,5,{8}8<5[8:1],{16}4,4,{8}8,3,{4}2>5[8:1]/8q5[8:1],
8/2,{8}1/8,{16}7,5,{8}6,{16}3,4,{4}1qq7[8:1]*q5[8:1],
1,{8}7/5,{16}2,4,{8}3,{16}5,4,{8}6,{16}3,4,
{8}2,1/7,{4}8q4[8:1],{8}8/6,7,{16}8,4,8,4,
7,3,6,2,{8}5b<8[8:1],{16}8,8,{8}5,1,{4}2>5[8:1]/5p8[8:1],
2/5,{8}7/3,{16}6,4,{8}5,{16}3,4,{4}1>5[8:1]*qq7[8:1],
1,{8}4/8<5[8:1],{16}5,5,{8}8,1>4[8:1],{16}4,4,{8}1,
8,6,2/4,{16}1,8,2,1,3,4,2,5,4,7,
5,8,2,6,{4}4bqq6[4:5],,,,{32},6,
,,,,,,,7,{16},,,{64},{192},{48}8qq2[4:5],{4},{16},,,{24},{48}2,
,,,,,,,,,,,,{24}3,{48},,,,,,,,,,,{16}4,{48},,,,,,,,,,,5,
,,,,,,,,,,,,,5h[48:17],,,,,,,,,,,,,,,,,{4}7,
{32},,,,7,6,{16}5bpp5[16:9]*qq5[16:9],
E
