&title=Clouds clear and...
&artist=Qutabire
&first=2.56
&des=...and?
&lv_5=13+
&inote_5=(187)
{1},,
{8}Ch[32:1],6,5,4,
3h[1:1],,,,
,,,,
,,,,
{8}5,4,3,1h[8:9],
,,,,
,,,,
,,,,
{8}5,4,3,2h[8:9],
,,,,
,,,,
,,,,
{8}5,4,3,2h[8:9],
,,,,
,,,,
,,,,
{8}3,,3,4,,4,5,,5,6,,6,7,3,7,1,
{16}8h[4:1],,,,4,3,2h[4:1],,,,6,7,8h[4:1],,,,
{16},,,,,,3,4,3,,2,,1h[4:1],,,,
{8}8h[4:1],,2,3,,3,2h[4:1],,
{8},,,,
,,,{16}7,8,
{8}7h[4:1],,3,8h[4:1],,3,1h[4:1],{32},,,Ch[32:1],
{4},,E1,,
{8}7h[4:1]/B3,,,1h[4:1]/B5,,,{64}4h[4:1]/B8,B1,,,
,,,,
,,,,
,,,,
{16},,,,
,,2,1,
2,,3,,
4,,5,,
{8}6h[4:1]/B2,,,4h[4:1]/B8,,,{64}1h[4:1]/B5,B4,,,
,,,,
,,,,
,,,,
{8},,,7,
6,5,4,3,
{8}2h[4:1]/B6,,,8h[4:1]/B4,,,{64}5h[4:1]/B1,B8,,,
,,,,
,,,,
,,,,
{16},,,,
,,6,5,
6,,7,,
1,,2,,
{8}3h[4:1]/B7,,,5h[4:1]/B1,,,{64}8h[4:1]/B4,B5,,,
,,,,
,,,,
,,,,
{8},,5,7,,4,6,,
{8}3h[4:1]/B7,,,1h[4:1]/B5,,,{64}6h[4:1]/B2,B3,,,
,,,,
,,,,
,,,,
{8},3,3,2,2,1,1,8,
{8}7h[4:1]/B3,,,5h[4:1]/B1,,,{64}2h[4:1]/B6,B7,,,
,,,,
,,,,
,,,,
{16},,8,1,8,,7,,6,,5,,4,,3,,
{8}6h[4:1]/B2,,,8h[4:1]/B4,,,{64}3h[4:1]/B7,B6,,,
,,,,
,,,,
,,,,
{8}6,4,6,7,8,1,2,3,
{8}2h[4:1]/B6,,,4h[4:1]/B8,,,{64}7h[4:1]/B3,B2,,,
,,,,
,,,,
,,,,
{12}1,2,3,7,6,5,
3,4,5,6,,,
{12}Ch[32:1]/4,3,2,1h[6:1],,,
4,3,2,1h[6:1],,,
3,2,1,8h[6:1],,,
2,1,8,7h[6:1],,,
{12}5,6,7,8h[6:1],,,
5,6,7,8h[6:1],,,
6,7,8,1h[6:1],,,
7,8,1,2h[6:1],,,
{12}5,4,3,2h[6:1],,,
4,3,2,1h[6:1],,,
3,2,1,8h[6:1],,,
2,1,8,7h[6:1],,,
{12}4,5,6,7,8,1,
2,3,4,5,6,7,
5,4,3,2,1,8,
7,6,5,4,3,2,
{12}1,,1/8,,1/8,,1/8,,7,2,6,3,
{12}5,,4/5,,4/5,,4/5,3,2,6,7,8,
{12}1,,1/2,,1/2,,1/2,,,8,2,8,
{12}1,7,2,6,3,5,
2,8,3,7,4,6,
{64}3/B6,B7,,,
,,,,{8},,,
,,,,
{32}8,1h[32:23],,,{8},7,,6,,5,,
{4}Ch[32:1]/4,,3/5,,2/6,,1/7,,
{16}8/4h[4:1],,,,5,6,7h[4:1],,,,3,2,1h[4:1],,,,
{192}8,,,B1,
,,,,
,,,,
,,,,
,,,,
,,,,
,,,,
,,,,{6}7,6,
5/4,3,2,
{16}1/5h[4:1],,,,4,3,2h[4:1],,,,6,7,8h[4:1],,,,
{64},B8,,,
,,,,
,,,,
,,,,{12},3,2,
{16}1h[16:3],,,8h[16:3],,,7h[16:2],,
{16}6,,,,,,2,1,
2,,,,,,3,2,
3,,,,,,4,3,
4,,,5,,,6,,
{8}7/3h[4:3],,5,5,,1,1,,
{12}8,2,7,3,6,4,
7,1,6,2,5,3,
{12}7,,7/8,,7/8,,7/8,,1,6,2,5,
{12}3,,3/4,,3/4,,3/4,5,6,3,2,1,
{4}8h[4:1]/E4/E5,,6h[4:1]/E2/E3,,4h[4:1]/E1/E8,,2h[4:1]/E6/E7,{8},8,
{12}7h[2:1]/3,,,,,,
4,5,6,7,8,1,
2,3,4,5,6,7,
8,1,2,3,4,5,
{12}1,8,7,6,5,4,
3,2,1,8,7,6,
{16}4,4,,,
3,3,,,
2,2,,,
1,1,,,
{16}1/5h[4:1],,,,4,3,2h[4:1],,,,6,7,8h[4:1],,,,
{192}1,,,B8,
,,,,
,,,,
,,,,
,,,,
,,,,
,,,,
,,,,{6}2,3,
4/5,6,7,
{16}8/4h[4:1],,,,5,6,7h[4:1],,,,3,2,1h[4:1],,,,
{64},B1,,,
,,,,
,,,,
,,,,
{12},6,7,
{16}8h[16:3],,,1h[16:3],,,2h[16:2],,
{16}3,,,,,,5,6,
5,,,,,,6,7,
6,,,,,,7,8,
7,,,8,,,1,,
{8}2/6h[4:3],,8,8,,4,4,,
{12}4,6,3,7,2,8,
3,5,2,6,1,7,
{12}2,,1/2,,1/2,,1/2,,8,3,7,4,
{12}6,,6/5,,6/5,,6/5,4,3,6,7,8,
{4}1h[4:1]/E6/E5,,3h[4:1]/E8/E7,,5h[4:1]/E1/E2,,7h[4:1]/E4/E3,{8},,
{12}1,2,3,4,5,6,
2,3,4,5,6,7,
2,8,3,7,4,6,
1,7,2,6,3,5,
{12}1,,1/8,,1/8,,1/8,,,8,7,6,
{6}5h[6:1],4h[6:1],3h[6:1],2h[6:1],1h[6:1],8h[6:1],
{8}6-2[4:19],,4,4,B8/E8,4,,5,,4,,,B8/E8,,,4,
{8}3,,5,,B1/E2,5,,4,,5,,,B1/E2,,,,
{8}7,,1,,B5/E6,1,,8,,1,1,,B5/E6,,,,
{8}2,,8,,B4/E4,,,1,,8,8,,B4/E4,,,,
{8}4,,5/B3/E3,,
,5,6/B2/E2,,
,6,7/B3/E3,,
,7,8/B2/E2,,
{8}5,,4/B6/E7,,
,4,3/B7/E8,,
,3,2/B6/E7,,
,2,1/B7/E8,,
{4}5/B4,6/B3,7/B2,8/B1,
4/B5,3/B6,2/B7,1/B8,
{8}B2/5,5,B7/4,4,
{16}4,5,3,6,2,7,1,{32}8,,
{4}Ch[32:1],,E1,,
{8}6/2,3,4,5/1,,5,6/2,3,
4,5/1,,{16}2,1,{8}2,3,4,5,
{8}2/6,7,8,1/5,,{16}8,1,{8}8,7,
6,2,6,5,{16}4,5,6,7,8,1,2,3,
{8}8/4,5,6,7/3,,3,8/4,5,6,7/3,,1,8,7,6,5,
{8}4/7h[2:1],,,5,5,,{32}1,8h[32:7],,,{8},
{8}2h[4:2],,,8,7,6,5,4,
{8}7/3,4,5,6/2,,3,7/4,5,6,7/3,,4,7/5,6,{16}5,4,3,2,
{8}1h[4:1]/B5,,7,7h[4:1]/B3,,4,4h[4:1]/B8,,
{8},{16}7,8,{8}7,6,5/2,3,4,5,
{8}3h[4:1]/6,,,{16}7,7,
{8}7,,,{16}1,1,
{8}1,6,7,8,1/3,4,5,6,
{8}7h[4:1]/3,4,4,2h[4:1]/6,5,5,7h[8:1]/3,4,
{12}4/8,7,6,5,4,3,
7,6,5,4,3,2,
{32}1b/Ch[32:1],,,,{8},2,3,
,5,,1,
,2,,3,
,4,5,,
{8}4,5,6,8,,5,6,7,,8,,1,,2,,{32},,,8,
{8}1,,2,3,,,4,4,,,3,,4,,5,,
{8}6,,7,1,,6,7,6,,,5,1,2,3,4,5,
{32}6-2[4:7],5,4,3,
