&title=青夏塗りの蝶々
&artist=ubique
&first=0.01
&lv_4=12
&lv_5=13+
&des_7=kano
&lv_7=14?
&des=kano
&inote_4=(200){4},,{2}5h[2:3]/4h[2:3],
{4},,,,,3/6,
,7-5[8:1],
,1-3[8:1],,8-4[8:1],
,1-5[8:1],,7,
7,3,3,4h[4:1]/2>6[2:1],
,,,8-3[8:1],
,1-6[8:1],,7x,
8x,2/1,2/1,3h[4:1]/4h[4:1],
,5h[4:1]/6h[4:1],,7b/4b,
,,,2,
2/4,8,1/8,6,
7/5,3/4,5/2,8<5[8:1],
,1>4[8:1],,6-1[8:1]/5-1[8:1],
,4-8[8:1]/3-8[8:1],,7<2[2:1],
,,,1h[4:1],
,E1/B1,B7/B3,{8}5,5,
{4}3,{8}7,7,{4}2,{8}8/1,8/1,
{4}8/1,{8}3,4,{4}2/5,7/8-4[8:1],
,5,7/3,{8}2,1,
2,1,{4}3h[4:1],4,5/2,
{8},7,{4}7h[4:1],{8}3,3,6,5,
6,5,{4}7h[4:1],8,1/2,
{8},2,3,4,5,6,{4}7,
1,6x/7x,7x/8x,8x/1x,
2/1,3/2,4/3,6/5,
3/4,8b/1b,3,2/4,
{8}6,5,{4}3h[4:1],{8}4,3,{4}2h[4:1],
1h[4:1],8h[4:1],6,5/7h[4:1],
{8}4,5,{4}7h[4:1],6,8h[4:1],
1h[4:1],3,5,{8}3x,4x,
3x,4x,{4}2x,1x/8x,{8}6x,5x,
7x,4x,{4}8,7/1,2-5[8:1],
1,8-4[8:1],1,2,
3,4/5,7/2,3/4,
{8}5,4,{4}5,{8}3,4,{4}3h[4:1],
5h[4:1],4h[4:1],8,7/1,
{8}7,8,{4}7h[4:1],{8}2,1,{4}2h[4:1],
4,4/3,2/5,1bqq4[2:1],
,,{2}5h[2:1],
{4}4,{8}3,4,,2,{4}2-7[8:1],
6-3[8:1],1-4[8:1],{8},8,{4}8qq7[4:1],
,2,{2}1h[8:5],
{8},5,{4}5,{2}7h[2:1],
{4}3,3h[2:1],,4h[4:3],
,,,3/4,
2/1,8/7,6/5,4/Cf,
,,,3/4,
{8}5,4/5,{4}2,6/4,{8}8x,7x,
6x,5x,1x,2x,3x,4x,{4}6p1[2:1]/5>1[2:1],
,,,8,
2/8,{8}6,6,{4}6/4,8,
8/3,{8}4,4,{4}4/6,7/5,
8/6,1/7,2/8,3q6[2:1],
,,,7h,
,,,8h,
,,,3/2,
,4/5,,8b,
,,3,4h[4:1]/3h[4:1],
,6h[4:1]/5h[4:1],,1h[4:1]/3h[4:1],
,8h[4:1]/6h[4:1],,3h[4:1],
4h[4:1],5h[4:1],6h[4:1],7,
{8},,,,8,1,{4}8-4[8:1],
,2-6[8:1],,7<4[8:1],
,1>4[8:1],,E8/E7,
E2/E3,6,2,4h[4:1],
,3/4,{8}2,2,{4}8h[4:1],
{8},3,{4}7h[4:1],{8},4,{4}5,
{2}6/3,{8}7,7,{4}1h[4:1],
2h[4:1],3h[4:1],4h[4:1],5-1[8:1],
{8},,,,7,6,{4}5h[4:5],
,C,,B8/B1/E1,
,3,{2}4/3v1[4:1],
{4}8,7,{8}6h[2:1],,,5,
{2}5,{8}2,3,{4}4h[2:1],
,6h[2:1],,8,
1,3/4,{2}6/5,
{4}5/7,8/1,7/2,6/3,
5/4,7,3/4,1,
5/3,8,7/2,{8}6,4,
6,4,{4}5,5h[4:1],1,
{8}3,4,{4}2h[8:1],{8}6,5,{4}7h[8:1],
{8}2,1,{4}2h[8:1],8,7/5,
6/4,5/3,1/8,6b/3b,
,4,4h[4:1],8,
{8}6,5,{4}7h[8:1],{8}3,4,{4}2h[8:1],
{8}7,8,{4}7h[8:1],1,2/4,
3/5,4/6,8/1,7h[4:1]/2h[4:1],
,5,6/4,8-5[8:1],
1,7-4[8:1],1,8<5[8:1],
1,{8}2,2,{4}4,2-5[8:1],
7,1>4[8:1],8,2-6[8:1],
8-4[8:1],1,1,7/5,
7/5,{8}3,3,4,4,{4}2/5,
5/2,{8}8,8,{4}7,1h[4:1],
5h[4:1],3h[4:1],7h[4:1],6q7[2:1],
,,,8,
8,{8}7,1,{4}7,3,
3,{8}2,5,{4}2,8w4[4:1],
{8},,,,,7/1,{4}7/1,
3/4,7/5,1/8,{8}3,4,
3,4,{4}2h[4:1],1,{8}6,5,
6,5,{4}7h[4:1],8,{8}2,2,
8,8,1,1,7,7,5,6,
4,5,3,3,7,7,8,1,
6,5,3,3,4,5,6,1,
1,7,5,8,3,4,{4}5h[4:1],
4,2h[4:1],4,7h[4:1],
4,{8}3,3,{4}8b,{8}5,4,
{4}6/3,{8}2,1,{4}8/3,{8}8,7,
{4}6/1,{8}3,4,{4}5/2,{8}7,7,
{4}6h[4:1],{8}1,1,{4}2h[4:1],4,
5/3,6/2,{8}7/1,7/1,8-5[8:1],2,
{4}2,{8}1-5[8:1],7,{4}7,{8}6>3[8:1],2,
{4}2,{8}1,1,8,8,2,3,
{4}5/4,{8}7,6,{2}5-1[8:1]/4-8b[8:1],
E
&inote_5=(200){4},,{2}5w1b[4:5],
{4},,,,,C,
{8},,6x,5,
{4}6,{8}2x,4,{4}2,{8}6x,5,
{4}7,{8}2x,1,{4}2,{8}8,8,
{4}3,{8}4,2,{2}8-5[8:1]*-3[8:1],
{16},,,E4,E5,E6,,,,,,,{8}3,4,
{4}3h[8:1],{8}7,5,{4}7h[8:1],{8}3,4,
{4}2h[8:1],{8}7,8,{4}7h[8:1],{8}1,1,
{4}6h[8:1],{8}5,7,{2}1>4[8:1]*<6[8:1],
{16},,,E7,E6,E5,,,,,,,{8}3,3,
{4}4h[4:1],{8}3,3,{4}2h[4:1],{8}4,4,
{4}6h[4:1],{8}5,5,{4}8h[4:1],{8}1,8,
{4}2h[4:1],{8}7,3,{4}5h[4:1],4,
3/5,2/6,1/7,8bq1[2:1],
,,,3h[2:1],
{8},,B7,B3,B5,B1,6,5,
{4}7/4,{8}1,8,{4}7/2,{8}3/5,{16}3,5,
{8}3,{16}6,4,{8}6,{16}1,8,1,8,1,8,{4}1b-5[8:1],
6,7-3[8:1],{8}2,2,1-3[8:1],1,
7-5[8:1],7,{4}4-1[8:1],4-7[8:1],4,
2,3>8[8:1],{8}6,6,{4}5-8[8:1],
5>2[8:1],5,8-6[8:1],3-1[8:1],
{8},5,2,4,1,1,{4}3/7,
5/1,{8}3/4,3,{4}3/5,7-4[8:1]/8-4[8:1],
8/7,2-4[8:1]/1-4[8:1],2/1,8-4[8:1]/7-5[8:1],
8-2[8:1]/7-3[8:1],8b/7b,E4/B4/B3,B6/E7/B7,
{8}1,1,7-1[8:1],2,7-3[8:1],3-5[8:1],2,2,
1,1,{4}7x/8x,E6/B5/B6,B3/E3/B2,
{8}8,8,2<8[8:1],7,2-6[8:1],6>4[8:1],7,7,
8,8,{4}3x/2x,4/5,{8}6,6,
5,7,{16}5,7,{8}5,{16}8,1,{8}8,3,3,
4,2,{16}5,1,{8}5,{16}3,4,{8}3,{4}5-2[8:1],
5/7-4[8:1],7/1-6[8:1],1/3>8[8:1],{8}A7,A6,
A5,A4,{4}1-5[8:1],4,7-3[8:1],
{8}8,8,1-3[8:1],1,8-4[8:1],8,2-5[8:1],2,
{4}6,3/7,8/4,2-6[8:1],
{8}1,1,8-6b[8:1],8,1-5b[8:1],1,7-4b[8:1],7,
{4}3,6/2,5/3,5h[2:1]/4>7[4:1],
{24},,,,,,D7,A6,D6,A5,D5,A4,D4,A3,D3,A2,D2,A1/E1,{4}7h[4:1],
5,{8}3,3,4,5/2,{4}7-5[8:1],
7/3-1[8:1],3-5-2-6b[2:1],{8},8,{4}8h[2:1],
,5,{2}5h[2:1],
{8},6,{4}6,{2}4h[2:1],
{8}E3,E4,E6,E7,,,{4}1w5[2:1],
{8},,,,,,8,8,
2,2,{16}7,3,7,3,6,4,6,4,{4}5s1[4:1],
{8},,,,3,4,{4}2/5,
{8}4/3,2,1/5,{16}1x,2x,{8}3x,7,8-4[8:1],1,
8-6[8:1],3,8,2-5[8:1],8,2,7,7,
6,8/5,,3/4,{4}2/5,{8}6,5,
7/8,2,3,8/4,6,5,{4}7/4,
{8}5/6,7,8/4,{16}8x,7x,{8}6x,2,1-5[8:1],8,
1-3[8:1],6,1,7-4[8:1],1,7,2,2,
1/3,1/3,,6b/5b,{4}7b/4b,Cf/8<6-2>4-8[4:3],
,,,1h,
,2,3/4,6/5,
8,2/4,1,7b/8b,
{8},,,,5,5,{4}3,
1/8,7h[4:1],5,2h[4:1],
3,{8}6,5,{4}4h[4:5],E6,
E3,B7,E2,8b-4-8[2:1],
{8},,,,2,2,{4}1<6[4:1],
2,3,4,5>2[4:1],
6,7,8,1V35[2:1],
,5s1[2:1],,8xh,
7xh,6xh,5/4,4h[1:1],
{8},B6,{4}B5,{8},B1,{4}E8,
{2}3V15[2:1],{4}6,7V58[4:1],
3,2v1[4:1],{8},7,{4}7,
{8}6/2,2,2/8,8,{4}4w8[8:1],4-2-8-6b[16:45],
,,,5h,
,,,3h,
,,,1,
1,{8}2,8,3,7,{4}4V62[2:1],
,2V84[2:1],,4V62[2:1],
,2-7-3[2:1],,5,
5,2,2,8,
8,{8}1,1,{4}1/4,{8}2,2,
8,8,4,4,7,7,{16}5,6,5,6,
5,6,5,6,{4}4-2[8:1]/7-3[8:1],,1b,
{16}3,4,{8}2,{16}6,5,{8}8,2/1,7,2>5[8:1],1,
2,8,7-3[8:1],3,7-5[8:1],2,{4}7/1-4[8:1],
7/1-6[8:1],3/1-4[8:1],8/1<6[8:1],{16}A4,A3,A2,A1,
A8,A7,A6,A5,{4}A4/8xw4[8:1],,6/2,
{16}3,4,{8}1,{16}7,8,{8}6,{16}2,5,{8}2,7-3[8:1],4,
7,8,1>4[8:1],5,1,7,{4}8-3[8:1],
6/8-5[8:1],1/8-4[8:1],8w4[8:1],A8f,
{8},,2,2,{4}6/2,{16}3,4,{8}3,
{16}5,4,{8}5,{16}2,4,{8}2,{16}6,4,{8}6,{16}1,8,{8}1,
{16}7,8,{8}7,{16}1,2,3,4,5/8-4[8:1],7,6,5,{4}4>5[8:3],
{16}A4,A3,A2,A1,A8,A7,A6,A5,{2}8b,
{4}2/4,{8}3/5,5/3,{4}6/2,7h[4:1],
8,{8}1,1,{4}2h[4:1],4,
5/3,{8}2,1,{4}2>5[4:1],5<8[4:1],
8>3[4:1],3<6[4:1],6<1[4:1],1V37[8:3],
{8},5,{4}5h[4:1],,4/6,
8/1,{8}2,2,{4}3/1,7/6,
3/5,{8}8/7,8/7,{4}6/1,2h[2:1]/5h[2:1],
{8},,,,,3,{4}4/2-5[8:1],
1-5[8:1],8-4[8:1],7<3[8:1],B1/B2/E2f,
{8},,7,8,,1/5,,4/3,
,5/2,,3,4,7/5,8,8,
7/1,3,3,4/2,{16}6,5,6,5,{4}7-4[8:1],
8-4[8:1],1-5[8:1],2>5[8:1],{8}6,7,
8,1,6/2,3,4/8,5,6/3,2,
1,8/4,7,6,5/3,3,7/5,7,
2/1,2,6/4,7,5/3,2,{16}7,6,5,4,
1,2,3,4,{32}8,7,6,5,4,3,2,1,{4}8b,{8}3,4/2,
{4}5/1h[8:1],{8}8,7/1,{4}2/6h[8:1],{8}5,6/4,
{4}7/3h[8:1],{8}8,7/1,{4}6/2,{8}3/4,2/5,
{4}5/1,{8}6/4,5/3,{4}2/4-7[8:1],1>4[8:1],
1<6[8:1],1-5[8:1],{8},,6/4,7/3,
{4}2/8h[8:1],{8}1,2/7,{4}8/3h[8:1],{8}6,4/5,
{4}7/3V52[16:3],{8}8,7,6,5,3/4,2,
{4}1/8,{16}6,5,{8}6,8w4b[8:1],7/1,
E
&inote_7=(200){4},{24},,,,,,6x,7x,{12}8x<1[12:17],,,,,,,,,,,,,,,,,,,,{4}4bh,
{8},,7,6,
{4}8h,{8}7,7,{4}6h,{8}8,8,
{4}2h,{8}7,8,{4}5h,{8}3,3,
{4}1/2v8[4:1],{8}7,7,{4}6,4h[8:3],
{16},,E5/E4,B5/B3,B6/B2,E7/E2,,,,,,,{8}2,2,
{4}5-3[8:1],{8}1,1,{4}6-3[8:1],{8}2,2,
{4}7-3[8:1],{8}1,1,4,5/2,1,7,
{4}3h[4:1],{8}4,4,{4}5/2,8<5[4:1],
{16},,1x,2x,{4}3x,{8},,4,6,
{4}5h[4:1],{8}8,6,{4}7h[4:1],{8}1,1,
{4}2h[4:1],{8}3,4,{4}6/2,{8}7-4[8:1],8,
{4}7,{8}2-6[8:1],1,{4}2,8b,
E6/B2,E4/B4,B7/B5,2>8[4:3],
,,,5,
5h[8:1],4,4h[8:1],{8}7,7,
{4}6/5,{8}2,3,4/5,6/5,8b,{16}2,1,
{8}2,3/8,{16}7,6,5,4,{4}1-5[8:1],1,
{8},6/4,{4}6/4,{8}2,2/1,8,7,
3,4,{4}2/5,1-5[8:1],1/8,
{8},6/4,{4}7/3,{8}8,7/1,2-4[8:1],2,
5-1[8:1],5,{4}3>7[8:1],5-1b[8:1],5,
{8},2/8,7/3,6,5,4/3,{4}2/1,
2/1,7-3[8:1],7,2-5[8:1],
1-5[8:1],8-4[8:1],7<4[8:1],7/1-5[8:1],
1w5[8:1],A1f,7/3,5/1,
{8}7,6,5/1,1,3,3,4,6,
2,8,{4}7/1,2-5[8:1],2/8,
{8}7,7,6/4,4,3,3,2,8,
6,4,{4}3/5,2/1,{8}7/5,7/5,
7/5,7/5,{4}8/1-5[8:1],1/2,{8}2/4,2/4,
2/4,5/1,{24}A8,E1,E2,A2,,,A7,B7,C,B3,{48},,,,{16}1,2,3,4,
5/6,4,3,2,1/8,7,6,5,4/3,5,6,7,{8}8/1,2/7,
3-7[8:1]/6-2[8:1],5/4,{4}6/3,8/1,3/4,
{8}6,6,{4}7-4[8:1],1-5[8:1],8,
7<4[4:1],7/4v6[4:1],3,1,
{16}3,4,{8}3,2-5[8:1],2,8-4[8:1],8,1,1,
{4}2>5[4:1],2/5v3[4:1],{8}6,7,{4}8<5[4:1],
5>2[4:1],2>8[2:1],{2}1h[8:3],
{4}1,2/8,3/1,6-3[8:1],
2,2h[8:3],{8},8,{4}8-6-1-5[2:1],
,4,3h[4:1],C,
{8},B7,{4}B1,{2}B3/B4,
{8}8,1,1,7,,,{4}6h[4:3]/2h[4:3],
{8},,,,,,7,6,
8,7,1,8,2,2,7,6/5,
4,4,3/5,2,2,1/8,{4}7/3,
{8}6/5,6/5,4/8,{16}B2,B3,{8}E4,7,1,2,
6,5,4,5,6,7/3,3/7,8/2,
{16}1,8,7,6,4,3,2,1,{4}8/7,{8}2-5[8:1],1,
2,8,6,6,5/7,7/5,{16}1,2,3,4,
8,7,6,5,{8}2,{16}3,4,{8}3,5/2,{4}8<3[4:1],
4V68[4:1],{8}E1,E2,E3,E4,5,3,
4,2,{24}5,6,7,8,1,2,3,4,5,6,7,8,{4}2b/1<7-3<5-1[8:7],
,,,{32},2h[2:1],,,,,,,,,,,,,,,,3,
,,,,,,,,,,,,,,,5/4,,,,,,,,,,,,,,,,7/6,
,,,,,,,,,,,,,,,2/3,{4},,{16},,,{8}7,
5,{4}6/4,
4/5,4/2,1/8,7-3[8:1],
8,{8}2>5[8:1],1,{4}8,7-5[8:1],
8-4[8:1],1>5[4:1],5v7[16:5],B8/B1/E1,
{8},,,,3,4,{4}2,
1/8,7,6/4,2,
1/3,7,8/4,2>5[4:1],
,8-4[4:1],,1,
2,3/4,{8}4/5,6,{4}5/7h[1:1],
{8},1,{4}1,{8},E8,{4}B2,
{2}B5/E5/B4,{8}3/4,4/3,{4}5/2,
1/8-4[8:1],8/5>2[8:1],5,7V14[4:1],
4-8[8:1],2,{8}4,5,{4}3qq7[2:1],
,,,5qq7[2:1],
,,{2}1,
{4}1p7[2:1],7,{8}6,,,5,
{2}5h[2:1],{8}1,2,{4}3/4z8[2:1],
,,,1/7>4[2:1],
,,{2}1h[1:1],
{4}2,3,4,5,
6/4,7/3,8/1,{8}2,2,
4,4,5,5,7,7,{16}1,8,1,8,
{8}2,2/7,{16}6,5,6,5,{4}7b/4b,{8}8/1>4[8:1],{16}7,7,
{8}1-6[8:1],{16}6,6,{8}1-5[8:1],{16}7,7,{8}1>4[4:1],{16}4,4,{8}1,5,
{16}5,6,7,8,4,5,6,7,3,4,5,6,{8}1/7,1,
2/5,8,6/4,1,3/4,5/4,{16}7,8,7,8,
{8}6,6,{16}2,1,3,8,{4}4b/7b,{8}8-3[8:1],{16}3,4,
{8}8<5[8:1],{16}4,5,{8}8-4[8:1],{16}3,4,{8}8-5[8:1],{16}2,3,{8}8,1,
{16}1,2,3,4,8,1,2,3,7,8,1,2,{8}5/3,7,
1/8,2/5,7/4,6/5,2/8,3/4,{16}6,5,7,4,
{8}8,7/1,{16}2,3,4,5,8,7,6,5,{8}8/4,1/5,
6/2,7/3,{16}4,5,4,5,3,6,3,6,2,1,2,1,
8,7,6,5,4/8,3,2,1,{4}8/4b,{8}3/5,3/4,
3/2,3/1,8/3,8/3,7/2,7/2,{16}6,1,6,1,
5,2,4,3,4,3,5,2,6,1,7,8,{8}6/1,2,
3,4/5,{4}6<1[8:1],6/5,2-5[8:1],
2/6,{8}8,7/1,{4}6/2,{8}3/5,6/4,
7/5,6/4,5/3,4/2,{4}1/3h[4:1],{16}1,8,7,6,
5,4,3,2,1/5,6,7,8,1,2,3,4,{8}5/2,1,
1,8/3,5,6,7/4,3,{4}2/5,
1/8,{8}7/4,6/3,{4}2/5-1[8:1],5qq2[8:5],
{8},,,,,8,{4}8,
7/2,6/3,5/4,{8}3,2/8,
7,6,5/1,2,3/4,5,6,7,
8/1,2/4,5/3,7,8,6,5,4/7,
2,1,{16}7,5,{8}7,{16}4,6,{8}4,{4}8V24[4:1],
4<7[4:1],7>2[4:1],2>5[4:1],{8}7,8,
1,2,3/6,4,7/5,6,8,8,
2,2/5,{16}3,4,3,4,{8}1,1,7/5,6,
4/5,6,3/5,6,4/2,6,{16}1,2,3,4,
2,3,4,5,{24}3,4,5,6,7,8,{4}5b/1b,{8}6,5,
{4}7/4,{8}1/5,2,{4}3/4,{8}7/5,6/4,
{4}5/3,{8}1,2/8,{4}3/7,{8}6-3[8:1],4,
{4}6,{8}2-6[8:1],6,{4}2,8-4[8:1],
8-3[8:1],8<5[8:1],8/1,{8}3,3,
3,2/4,7,6,6,7/5,1,1,
2/8,8/2,{16}6,5,6,5,{8}7/4,7/4,1/8,8/1,
{4}5/3,{16}7,5,{8}8,1-5b[8:1],2,{4}3,
E
