&title=DOKI DOKI SCARY
&artist=Poppin'Party
&first=-0.535
&des=Hrayno
&lv_5=13
&des_5=Hrayno
&inote_5=
(142){4},,,,{2}1xh[4:1]/Cf,
8xh[4:1]/Cf,
2xh[4:1]/Cf,7xh[4:1]/Cf,
{12}3,3,3,7,7,7,{4}2h[4:1],8-5[8:1]*>5[8:1],
,8-5[8:1]*>5[8:1],,1s5[2:1],
,,,8b,
1q5[8:1],{8}6,6,{16}7h[16:3],,,3,,8,{8}1,
2x,4/3,7,6/5,1,3/4,8,6/5,
{4}4p8[8:1],{8}7,7,{16}6h[16:3],,,1,,4,{8}3,
2/6,2/6,8/4,4/8,{16}E1,E8,E7,E6,E2,E3,E4,E5,
{4}8p4[8:1],{8}3,3,{16}2h[16:3],,,6,,1,{8}8,
7x,5/6,2,3/4,8,6/5,1,3/4,
{4}5q1[8:1],{8}2,2,{16}3h[16:3],,,8,,5,{8}6,
4/7,2/5,3/8,1/6,2h[8:1],4h[8:1],6h[8:1],8h[8:1],
{4}1-3[8:1],{8}6,6,{4}5-7[8:1],{8}3,3,
{4}4-2[8:1],{8}7,7,{4}8-4[8:1],B2/E3/A2,
1>4[8:1],{8}6,6,{4}7p3[8:1],{8}2,2,
{4}1-5[8:1],{8}6,6,7h[8:3],E5/B5/B4,,B2/E3/A2,
1bx/8bx,{16}3,4,{8}2,{16}6,5,{8}7,{16}4,5,{8}3,7,
2-5[8:1],1,7-3[8:1],6,1w5[8:1],2,,,3/7,
5,2/6,4,{2}3-1[8:1]/7-5[8:1],
{4}2b/6b,7b/3b,{2}4b/8bz4[8:1],
{12}1x,2x,3x,5x,6x,7x,2x,3x,4x,6x,7x,8x,
3x,4x,5x,7x,8x,1x,{4}5h[4:1],E8/A7/B7,
{12}8x,7x,6x,4x,3x,2x,7x,6x,5x,3x,2x,1x,
6x,5x,4x,2x,1x,8x,{4}4h[4:1],{32}B8,C,{16}B4,,,{8}3/5,
2/6,6/4,3/7,8h[4:1],B1/B2,B4/E4,7h[4:1],
,5,4/6,3/5,2h[4:1],B5/B4,{4}B8/B7,
{8}1-5[8:1],2,8-6[8:1],7,3-1[8:1],2,4-8[8:1],5,
{2}2h[2:1],{32}E8,E7,E6,E5,E4,E3,E2,E1,E8,E7,E6,E5,E4,E3,E2,E1,
{4}Ch[4:3],,,8b,
{8}7/5,6,2/4,3,{16}6h[16:3],,,8,{8}7-3[8:1],6,
7/2-5[8:1],1,2/6,{16}8,8h[16:5],,,{8}E5/B5/A5,{4}B2/B3/E3,
{8}2/8,3,1/7,6,{16}4h[16:3],,,5,{8}4,6,
{16}2>6[16:3],8,1,8,{8}2,{16}7,7h[16:5],,,{8}E8/B8/A8,{4}B2/E3/B3,
{8}2/4,3,7/5,6,{16}3h[16:3],,,1,{8}2-6[8:1],3,
2/7-4[8:1],8,7/3,{16}1,1h[16:5],,,{8}E5/B4/A4,{4}B7/B6/E7,
{12}2,2,2,6,6,6,{4}4h[4:1],5-1[8:1],
5b<8[8:1]*>2[8:1],5bw1[8:1],5b,1x-3[8:1]/8x-4[8:1],
8x-6[8:1]/1x-5[8:1],1x-3[8:1]/8x-4[8:1],8x-6[8:1]/1x-5[8:1],1x-3[8:1]/8x-4[8:1],
8x-6[8:1]/1x-5[8:1],1x-3[8:1]/8x-4[8:1],8x-6[8:1]/1x-5[8:1],1x/8x,
{2}4>2[8:1]/5p1[8:1],5<7[8:1]/4q8[8:1],
{16}2,8,2,8,{8}3-1[8:1],{16}7,7,,,,,{4}8x-6[8:1]/1x-5[8:1],
1x-3[8:1]/8x-4[8:1],8x-6[8:1]/1x-5[8:1],1x-3[8:1]/8x-4[8:1],8x-6[8:1]/1x-5[8:1],
1x-3[8:1]/8x-4[8:1],8x-6[8:1]/1x-5[8:1],1x-3[8:1]/8x-4[8:1],8x/1x,
{12}3,3,3,5,5,5,{4}1h[4:1],8w4[8:1],
8b,1w5[8:1],1b,3-8[8:1]/4-7[8:1],
4b/3b,6-1[8:1]/5-2[8:1],6b/5b,8-5[8:1]*>5[8:1],
,8-5[8:1]*>5[8:1],,1s5[2:1],
,,,,3h[8:1]/5h[8:1],
4h[8:1]/6h[8:1],{16}4,6,3,5,{4}2,
4h[8:1]/2h[8:1],5h[8:1]/3h[8:1],{16}5,3,6,4,{4}7,
6h[8:1]/4h[8:1],2h[8:1]/8h[8:1],{16}2,8,2,8,{4}1h[4:1],
{8}7,{16}3,4,{8}2,{16}6,5,{8}7,{16}3,5,,6,{8}4,
{4}2h[8:1]/8h[8:1],1h[8:1]/7h[8:1],{16}1,7,2,8,{4}3,
1h[8:1]/3h[8:1],8h[8:1]/2h[8:1],{16}8,2,7,1,{4}6,
7h[8:1]/1h[8:1],3h[8:1]/5h[8:1],{16}3,5,3,5,{4}4h[4:1],
{8}6,6,2,2,1/7,5/3,2>5<5qq5b[1:1]/8<5>5pp5b[1:1],4/6,
,,,,,,,,,,,,{2}4-1[8:1]/5-8[8:1],
{16}1,7,2,7,3,7,{8}4h[2:1],{16},,,,,,6,5,
{8}7,{16}3,4,{8}2,{16}5,4,{8}6,2h[8:1],4h[8:1],5h[8:1],
{16}7-4[8:1],,,8,{8}7,2-5[8:1],{16},1,{8}2,{4}6h[4:1],
{16}3-8[8:1],,,4,{8}3,6-1[8:1],{16},5,{8}6,4,3,
A8,A7,A6,A2,A3,A4,E8,E7,
E6,E2,E3,E4,B8/B7,B3/B4,B6/B5,B1/B2,
{1}Ch[1:1],
{2},,2h[2:1],
6h[2:1],
4h[2:1],8h[2:1],
B4/A4/B3/A3/E4/D4/Cf,B8/A8/B7/A7/E8/D8/Cf,
{16}1q5[8:1],7,2,7,{8}1,{16}6,6h[16:5],,,{8}E6/B6/E7,{4}E2/B1/E1,
{8}3/1,2,8/6,7,{16}2h[16:3],,,8,{8}1-5[8:1],2,
1/7-4[8:1],6,7/2,{16}3,3h[16:5],,,{8}B6/E7/E6,{4}B1/E1/E2,
{12}7,7,7,3,3,3,{4}5h[4:1],4-8[8:1],
4b<7[8:1]*>1[8:1],4bw8[8:1],4b,2x-4[8:1]/1x-5[8:1],
1x-7[8:1]/2x-6[8:1],2x-4[8:1]/1x-5[8:1],1x-7[8:1]/2x-6[8:1],2x-4[8:1]/1x-5[8:1],
1x-7[8:1]/2x-6[8:1],2x-4[8:1]/1x-5[8:1],1x-7[8:1]/2x-6[8:1],2x/1x,
{2}4>2[8:1]/5p1[8:1],5<7[8:1]/4q8[8:1],
{16}2,1,2,1,{8}3V51[8:1],{16}6,6,,,,,{4}7x-5[8:1]/8x-4[8:1],
8x-2[8:1]/7x-3[8:1],7x-5[8:1]/8x-4[8:1],8x-2[8:1]/7x-3[8:1],7x-5[8:1]/8x-4[8:1],
8x-2[8:1]/7x-3[8:1],7x-5[8:1]/8x-4[8:1],8x-2[8:1]/7x-3[8:1],7x/8x,
{12}2,2,2,6,6,6,{4}4h[4:1],5w1[8:1],
5b,4w8[8:1],4b,2-6[8:1]/1-5[8:1],
2b/1b,7-3[8:1]/8-4[8:1],7b/8b,1-7[8:1]*-5-3[16:3],
,1-7[8:1]*-5-3[16:3],,1s5[2:1],
,,,,1q5[8:1],
{8}6,6,{16}7h[16:3],,,3,,8,{8}1,
3x,4/2,6,7/5,2,1/3,7,8/6,
{4}1q5[8:1],{8}7,7,{16}6h[16:3],,,3,,5,{8}4,
6/4,6/4,8/2,2/8,{16}7,6,5,4,1,2,3,4,
{4}8p4[8:1],{8}3,3,{16}2h[16:3],,,6,,1,{8}8,
6x,5/7,3,2/4,7,8/6,2,1/3,
{4}8p4[8:1],{8}2,2,{16}3h[16:3],,,6,,4,{8}5,
4/7,2/5,3/8,1/6,2h[8:1],4h[8:1],6h[8:1],8h[8:1],
B3/B4,E8/B8,A1/E2,B6/B5,E4,A7,B1,E6,
{4}Ch[2:1],8-4[8:1],
E
