&title=Libertas
&artist=Zekk
&first=0.02
&des_1=Aquaplume
&des_2=Aquaplume
&des_3=Aquaplume
&des_4=Aquaplume
&des_5=Aquaplume
&lv_5=14
&des_6=Aquaplume
&des_7=Aquaplume
&des=Aquaplume
&inote_5=(160)
{4},,,,
{8}6b/2bh[4:1],,6,5,3,3,5,6,
2,3,7,7,4,3,6,6,
2,2,5,6,3,3,6,5,
{16}2,,3,4,3,4h[16:3],,2,2V84[4:1],,5/1,,2b,,,,
6,,,5-2-4-8[16:7]/6h[16:9],,,,,,,,,,,,,
5,,,4-7-5-1[16:7]/3h[16:9],,,,,,,,,,,,,
2-4[8:1],,,6,,,,,7-1[8:1],,5,5,,,4,,
{4}8/3>8[8:1],6>3[8:1]/3,6/1<6[8:1],1b/2b,
{16}1h[8:1]/5,,,6,2h[8:1],,7,,3h[8:1],8,,,1/4,,,,
{16}8h[8:1]/4,,,3,7h[8:1],,2,,6h[8:1],1,,,5/8,,,,
{16}5h[8:1]/1,,,2,6h[8:1],,3,,7h[8:1],4,,,5/8,,,,
{16}4h[8:1]/8,,,7,3h[8:1],,6,,2h[8:1],5,,,1/4,,,,
{8}2-4[8:1]/5,6,2/7,8-6[8:1],5,4/8,3-5[8:1],5,
3/6,7-1[8:1],4,3/7,2-6[8:1],1-5[8:1],2,1,
{16}4,4,6,6,3,3,5,5,{24}2x,3,4,5,6,7,1x,2,3,4,5,6,
{4}1<3[8:3]/7h[4:1],,8-4b[8:1],2/8,
{16}1b/5b,,,,8>3[8:1],8,1,6h[16:3],,,,,4<7[8:1],4,5,2h[16:3],
,,,2x,,,8,4/8-4[8:1],,,2,8,1-4[8:1]*-6[8:1],,2,,
1,,,,5>2[8:1],5,4,7h[8:1],,,,,1,1,7,2,
{16}8bxh[8:1],,,8bh[8:1]/5b,,,8bh[8:1]/6b,,{12}A7f/B7f,,2,2-6[8:1],8,8,
{16}2b,,,,7>2[8:1],7,8,6h[16:3],,,,,4<7[8:1],4,5,2h[16:3],
,,,2x,,,7,7-2[8:1]/3,,,4,7,5w1[8:1],,4,,
{1}5>6[8:5]*<4[8:5],
{8}E2,E3,E4,E6,E7,E8,{16}2-5b[8:1],1,3,,
2x/5x,,,,6b,4,7,3,8h[16:3],,,7h[16:3],,,4,4,
8h[8:1],,5,5,1h[8:1],,6,6,2h[16:3],,,4h[16:3],,,8h[8:1],,
4,8,5,1,7,8,6,1,4,3,5,2,6,5,7,4,
8b,8,3,7,4b,5,2,6,1bh[8:1],,,1bh[8:1]/4b,,,1bh[8:1]/3b,,
A2f/B2,,,,1-6[8:1]/5,2,3,4,1x,,5,,7-4[8:1]/4-8[8:1],,3,,
4/7,,,,5-2[8:1]/1,6,7,8,5x,,1,,8-4[8:1]/3,,7,,
{12}8b,{24}3,2,1,8,{12}5,1,3,2,8,6,7,3,4,
{24}1,5,1,5,1,5,1,5,1,5,1,5,{8}1-5[8:1],2b/5xw1[8:1],6b,,
A2/A8/A1f/B1/E2/E1,,,,,,,,
3h[4:2],,,,,B3/4h[8:1],,B4/5h[8:1],
,B5/6h[8:1],,B6/7h[8:1],,B7/8h[8:1],,B8/1h[8:1],
,B1/2h[8:1],,B2/3h[8:3],,,4V61[4:2],,
2b<4[4:5],,,,,,,,
,,,,8h[4:2],,,,
B7,B6,B5,B4,B3,B2,4h[4:1],,
{4}2-4[8:1],2-8[8:1],{8}2-5b[8:1],{16}6,6,2x,,,,
{16}8bh[8:1]/4b,,,3,7h[8:1],,2,,6h[8:1],1,,,8x/5x,,7x,8x,
{16}1h[8:1]/5,,,6,2h[8:1],,7,,3,8,,1x/4x,,,3x,,
{16}4h[8:1]/8,,,7,3h[8:1],,6,,2x/5x,,1x,1x,,,4x/8x,,
{16}5h[8:1]/1,,,2,6h[8:1],,3,,4x/7x-3[8:1],,8x,,3x/7x,,,,
{8}2-5[8:1]/5,1,2/6,7-4[8:1],4,3/7,2-7[8:1],5,
2/6,5-8[8:1],8,1/5,2-6[8:1],1-5[8:1],2,1,
{16}4,4,7,7,5,5,2,2,{24}4x,3,2,1,8,7,5x,4,3,2,1,8,
{4}7-2[8:1]/3-6[8:1],,1<6b[8:1]/5>2b[8:1],1/5,
{24}1b-5[8:1]/7b,6,5,{16}4,,1-3[8:1],6,6,,1v4[8:1],7,,8,1,7,7,,
{24}8-4[8:1]/2,3,4,{16}5,,8-6[8:1],3,3,,8v5[8:1],2,,1,8,2,2,,
{24}1-5[8:1]/7,6,5,{16}4,,1-3[8:1],6,6,,1v4[8:1],8,,6,1,7,7,,
{24}8-4[8:1]/2,3,4,{16}5,,8,3,3,,2,{32}B7,B6,{16}E6,3,4,2,5,,
{24}1-7[8:1]/6,5,4,{16}3,,1-3[8:1],4,4,,1v4[8:1],7,,6,1,8,8,,
{24}7-1[8:1]/2,3,4,{16}5,,7-4[8:1],5,5,,7,2,,8,7h[8:1],,1,2,
6/3,,6,5,,5,4,,4,3,,3,{32}B6,B7,{16}E8,2,1,
3,5,4,6,8,7,1,6,3,7,2,5,4w8[8:1],8,4,,
Cf,,,,{4}6b>7[4:2]/2b,,{16},,4,3,
2qq5[4:2],,,6x,,,5x,,,,4x,,,6x,,,
7qq4[4:2],,,,,,3,,,,,,2,,1,,
8>3[8:1],,8,,5<8[8:1],,5,,4bxh[16:2],,,4bh[16:2]/2b,,,4bh[16:10]/8b,,
5h[4:6],,,,,,,,,,,,,,4,3,
2h[4:2],,,,,,,,,,3x/6x,,{12}7,8,1,
{8}2/6,2/6,3/7,3/7,{16}4,8,4,8,5-3[8:1]*-7-1-3[4:2],7,4,6,
{4},,4w8[8:1],4x,
{16}2b/6b,,3/7,,5/6,,7,8,5,3,4,1,5,2,7,,
4/8,,7,5,6,2,4,3,7-4[8:1],8,5-2b[8:1],3,,,,,
8,,1,4,2,7,5,6,8h[8:1],,7,1,5,2,8,4,
7,5,6,1,3,2,8,4,6bh[8:1],,,6bh[8:1]/1b,,,6bh[8:1]/3b,,
A5f/B5,,,,2,1,3,8,2,,{32}B2,B3,{16}E4,7x,5x,6,8,
E6,E8,B5,B8,B4,B1,E4,E2,5x,3x,6,4,7,,2/8,,
1,4,2,5,3,6,4,7,E4,E2,B4,B1,B5,B8,E6,E8,
{12}3x,2,1,2,1,8,1,8,7,{16}2-5b[8:1],1,3,,
2x/5x,,,7,2b-8[8:1],,6,,2-6[8:1],5,,,2/4q8[12:1],,5,,
3/4,,,2,7-1[8:1],,3,,7-3[8:1],4,,,7/5p1[12:1],,4,,
5/6,,7<4b[12:1],8,7,8,7,,1>4b[12:1],3,1,3,1,,6,5,
4/7,,3,4,2/5,,1,,3bh[8:1]/7b,,,3bh[8:1]/8b,,,3bh[8:1]/6b,,
A4f/B4,,,A7/B7,,,2,1,8h[8:1]/3,,,2h[8:1]/4,,,3/5,,
7h[8:1]/8h[8:1],,,4h[8:1]/6h[8:1],,,1h[8:1]/2h[8:1],,,3h[8:1]/5h[8:1],,,6-1[8:1]/2-5[8:1],,3/7,,
2/6,,,,{12}4,8,6,7,1,3,2,6,5,
{8}4h[4:1]/8,,8-4[8:1],7b/4xw8[8:1],3b,,,,
{16}1/2,,,8h[16:9]/2-6-3-5[16:7],,,,,,,,,,,,,
{16}3/7,,,1h[16:9]/7-3-6-4[16:7],,,,,,,,,,,,,
2-7[8:1],,,5,,,,,6-1[8:1],,4,4,,,3,,
{4}4/7<4[8:1],2<7[8:1]/7,2/5>2[8:1],5b/6bV41b[8:1],
E
