&title=芥の部屋は錆色に沈む
&artist=こんにちは谷田さん
&first=0.13
&des=Freedom
&wholebpm=160
&clock_count=4
&lv_5=14
&inote_5=(160)
{1},
{16}4b/5b,,3,4,2,,4/5,,6,5,7,5,6,,4/5,,
{16}4/5,,2,4,3,,4/5,,6,5,7,5,8,,4/5,,
{16}4/5,,2,1,2,,3/8,,7,1,6,2,8,,1/7,,
{16}3/5,,4,4,4,,3/5,,4,4,4,4,4,,3/5,,
{16}6h[16:1],,6h[16:1]/4x,,6h[16:1]/4x,,6h[16:1],,6h[16:1]/2x,,6h[16:1],3x,6h[16:1],,6h[16:1]/4x,,
{16}7h[16:1],,7h[16:1]/1x,,7h[16:1]/1x,,7h[16:1],,6h[16:1]/2x,,6h[16:1],3x,6h[16:1],,6h[16:1]/4x,,
{16}3h[16:1],,3h[16:1]/7x,,3h[16:1]/7x,,3h[16:1],,3h[16:1]/8x,,3h[16:1],7x,3h[16:1],,3h[16:1]/6x,,
{16}2/5-1[6:1],,,3,,,4,,8,,2/6,,4-2[8:1],,,,
{16}4b/5b,,,8,8x-6[8:1],,1,,4,,,3,3x-5[8:1],,5,,
{16}6,,,2,2x-6[8:1],,6,,7,,,8,8x-6[8:1],,2,,
{16}1b/8b,,,4,4x-2[8:1],,5,,8,,,7,7x-3[8:1],,1,,
{16}3,,,5,5x-1[8:1],,1,,7,,,6,6x^3[8:1],,2,,
{16}3b/6b,,,2,1x-4[8:1],,8,,1/7,,,6,5x-8[8:1],,4,,
{16}3/5,,,2,1x-5[8:1],,8,,1/7,,,6,5x-1[8:1],,4,,
{16}3b/5b,,,2,2x-6[8:1],,8,,2/6,,,7,7x-3[8:1],,5,,
{16}3/7,,,2,4,,6x/5,,7/8x,,2,1,3,1,4,1,
{16}5x-3[8:1],,,,6,,,,2-4[8:1],,5,,6,,,,
{16}5-3[8:1],,,,6,,,,2v5[128:17],,5,,6,,7,,
{16}8h[8:1],,3,4,,2,6,5,7,4h[8:1],,5,3,4,2,8h[8:1],
{16},2,4,3,5h[8:1],,6h[8:1],,7x-3[8:1],,,,2x-5[8:1],,,,
{16}5b-3[8:1],,,,6,,,,2^4[8:1],,5,,6,,,,
{16}5^3[8:1],,,,6,,,,2^5[6:1],,5,,6,,7,,
{16}8h[8:1],,3,4,,6,5,,3x/4x-7[128:17],,2,,1x-5[128:17],,,,
{16}8^3[128:17],,,,4x,,,,4,5,4,6,4,7,3,8,
{16}2x-5[128:17],,8h[16:1],,8h[16:1],,8h[16:1],,8h[16:1]/6x-3[128:17],,8h[16:1],,8h[16:1],,8h[16:1],,
{16}8h[16:1]/2x^5[128:17],,8h[16:1],,8h[16:1],,8h[16:1],,8h[16:1]/6x^3[128:17],,8h[16:1],,8h[16:1],,8h[16:1],,
{16}2x-6[128:17],,,,6z2[4:1],,,,7h[8:1],,,,8,,1x/7x,,
{16}3-1[8:1]/5-7[8:1],,,,3/5,,,,8-4[128:17],,,,1,,,,
{16}2xh[16:1]/6x-3[128:17],,2h[16:1],,2h[16:1],,2h[16:1],,2h[16:1]/4x-7[128:17],,2h[16:1],,2h[16:1],,2h[16:1],,
{16}2h[16:1]/8xv5[128:17],,2h[16:1],,2h[16:1],,2h[16:1],,2h[16:1]/6xv1[128:17],,2h[16:1],,2h[16:1],,2h[16:1],,
{16}8x^5[128:17],,,,5pp1[8:3],,,,4h[8:1],,,,4,,3,,
{16}2,,8,,1/7,,2,,6,3,4,3,4,3,4,3,
{16}5bx-2[192:19],,,8bx>7b[16:5]*^2V46^7[16:5],,,8b,,,,,,1x,,,,
{16}2/5,,3,4,2,8,5,7,2,4,3,,5/6,,7,,
{16}1/8,,3-5[8:1],4,3,,6,,6-3[8:1],,,,2x,,,,
{16}3/4,,5,,3x/4x,,2,2x,5,6,7,8,2,3,4,5,
{16}7bx-3[192:19],,,1bx<2b[16:5]*^7V53^2[16:5],,,1b,,,,,,7x,,1,8,
{16}2x/7x,,6,4,7,5,8x,,3/7,,2x/6x,,1-5[128:17]/5,,7,,
{16}1x/8xh[4:3],,,,,,,,,,,,C,,,,
{16}3,4,3,4,,2/5,,3/7,,6,4,8,2,,,,
{16}1b^4[128:17]/7b,,,6,1,,7,,8/5-2[128:17],,,6,5,,7,,
{16}1x-5[128:17]/8x,,,2,1V73[4:1],,3x,,1x/6x-2b[128:17],,,,,,,,
{16}4/8V64[6:1],,,3,8,,2,,1x-5[128:17]/5x,,,,1x/7x,,,,
{16}8-4[128:17],,,4,8^7^6^5^4^3^2b[4:1],,2,,8/6,,,,8x,,B8,C,
{16}B4f/1bx-5[128:17],,,,1x/8x<4[6:1],,,,4V68[6:1],,3,,2x-6[128:17],,1,,
{16}8x-4[128:17],,,5x,8x-6[8:1],,3,,2x-4[8:1]/8x,,,,5/2,,,,
{16}7b-3[128:17],,,8,7,,1,,2b-6b[128:17],,,1,2,,8,,
{16}7b-4[128:17]*V53[128:17],,,,7x,,,,2x,1,2,8,2,7,2,6,
{16}2b-5[128:17],,,6,2,,7,,4x/8x^3[128:17],,,7,8,,6,,
{16}4x-8[128:17],,,3,4V25[4:1],,2,,4x/7x-3b[128:17],,,,,,,,
{16}2xV48[4:1]/8x,,,5x,2,,6,,7x-3[128:17]*-4[128:17],,,,7x,,,,
{16}1b/2b,,,3b/4b,,,5b/6b,,7b^4b[128:17]/8b^3b[128:17],,,,7/8,,,,
{16}1bx-5[128:17]/8bx,,,6,1,,7,,8-4[128:17],,4,,3,,2,,
{16}1bx^4[128:17]/5bx,,,6,1,,7,,8^5[128:17],,4,,3,,2,,
{16}1b,,4x>5b[8:3],3,,3,4x,,,,,,2xh[8:1],,,,
{24}3/4,,,7x,6,5,4x/3x,,,1x,2,3,4x/5x,6,7,8,1,2,3,4,5,6,7,8,
{16}1bx/2bx-6[192:19],,,5bs1b[8:11],,,,,,,,,,,,,
{16},,,,,,,,,,,,,,,,
{16}2b/8b-4[192:19],,,6bz2b[8:11],,,,,,,,,,,,,
{16},,,,,,,,,,,,,,,,
{16}1b-5[128:17]/3b,,,2b,1,,,,3,4,2,4,3,,4x/5x,4bx/5bx-2[128:17],
{16},,6,5,,,7,7b-4[128:17],,,8,7,1x,,2x,,
{16}3bx/5bx^2[128:17],,,6b,5,,,,7,1,8,2,7,,3x/6x,4bx-8[128:17]/5bx,
{16},,3,4,,,2,2b,,,6,5,7,4,6,5,
{16}8bx,,3,4,1V72-6[8:3],,5,,1x/6x,,,,A8,,,,
{16}7x,,6,5,8V27-3[8:3],,4,,8x/3x,,,,A1,,,,
{16}2x,,3,5,4V25-1[8:3],,6,,4x/7x,,,,A8,,,,
{16}7x,,6,4,5V74-8[8:3],,3,,5x/2x,,,,A1,,,,
{16}2b-5[128:17]/7b,,,8,2,,7,,6x/4x-8[128:17],,,,2x/4x,,,,
{16}1-5[128:17],,,8,,,7,,6-3b[128:17],,4,,3x/6x,,,,
{16}3x,4,3,4,3,4,3,4,2,5,2,5,2,5,2,5,
{16}1,6,1,6,1,6,1,6,8,7,8,7,8,7,8,7,
{16}1b,,,,2x,3,7,6,2,3,7,6,2,3,7,6,
{16}1,2,8,7,1,2,8,7,3,4,6,5,3,4,6,5,
{16}2b-6[128:17],,,6,2,,5,,4xqq5[4:1],,5,,4x/6x,,,,
{16}7-3[128:17],,,3,7-5[8:1],,4,,7xV15[4:1],,2,,7x,,3,,
{16}4b-8b[128:17],,,,3x/4x,,,,3x,4,7,6,2,3,6,5,
{16}1b-5[128:17],,,,1x/8x,,,,7x,6,4,3,6,5,3,2,
{16}4x,1x,4,1,4,1,4,1,4x,8,4,8,4,8,4,8,
{16}6x,8,6,8,6x,2,6,2,6x,5,4,3,2,1,8,7,
{16}6x/2xqq6<4[4:7],,,,,,,,,,,,,,,,
{16},,,,,,,,,,,,,,,,
{16}5xp4>6[4:7],,,,,,,,,,,,,,,,
{16},,,,,,,,,,,,,,,,
{16}2xq5<3[4:7],,,,,,,,,,,,,,,,
{16},,,,,,,,,,,,,,,,
{16}5-7[4:1],,,,,,,,3-1[4:1],,,,,,,,
{16}4-8[4:1],,,,,,,,1-5b[4:1],,,,,,,,
{16}8b,,3,4,3,,4x,,E2/B2,,4,3,E6/B6,,3x,,
{16}4x/7x,,6,5,6,,5x,,E8/B7,,5,6,E4/B3,,6x,,
{16}2x/5x,,3,4,2,,5x,,A1/B1,,6,4,A8/B8,,5x,,
{16}4x/7x,,6,5,7,,4x,,B8/A8,,3,5,A1/B1,,4x,,
{16}2b/6b,,,3b/7b,,,4b/8b,,,3,5,1,4,2,8,5,
{16}7bx^4b[12:1],,,1bx-5b[12:1],,,8bx,,,,,,,,,,
{16},,,,{32},,,,1b/8b,2x/7x,3x/6x,4x/5x,,,,,E5,B5,Cf,B1,{16}E1,,,,
{16}2bx/6bx,,4,3bx/5b,,6,5b/7bx,,1b/8b,,2,4,3,5,4,6,
{16}8bxV25b[16:3],,,6,8,,7,,8^3[128:17],,2,5,8x,,6,,
{16}4x-8[128:17]/7x,,,3,4^5^6^7^8^1^2^3b[4:1],,2,,4/6,,,,8x,,B8,C,
{16}B4f/1b-5b[128:17],,,,1/8,,7,,6-4[192:19],,4-7[8:1],,6,,3,,
{16}2-5[128:17],,,8,2q3[4:1],,7,,2/6^1[128:17],,,,6,,,,
{16}4bV26[4:1],,,1,,,7,,5bV37b[4:1],,,8,,,1,,
{16}2bV46[128:17]*v5[128:17],,,,2x,,,,7,,1,,6,5,8,,
{48}7bx/4bx-8[128:17],,6/3,,5/2,,,,,1x,,,{16}4w8[128:17],,2,,4x,,,,5xh[8:1]/3xh[8:1],,,,
{16}2/6,,3,4,2-5[128:17],,1,,2/8-4[128:17],,,,3,,2,,
{16}1x-7[8:1],,6,6,1-3[8:1],,5xV74-8[16:5],,1,,5x,,2xh[8:1],,,,
{32}1b,2x,3x,4x,,,7b-3b[192:19],6x,5x^8b[8:1],4x,,,7b,,,,{16}5b,,,,1x/2x,,3,,
{16}4b/7b-3[128:17],,6,5,7,,2,,1-5[128:17],4,4,,1,,6,,
{16}7b^4[128:17],,6,5,7,,2,,3^8[128:17],4,4,,3,,5,,
{16}6b,,7,5,7,,2,4,2,,3,,4/6,,7,,
{16}2/8,,2/8,,4,3,4,3,5,4,5,4,6,5,7,6,
{16}8b-4[128:17],,,1,8,,2,,3-7[128:17],,,4,3,,5,,
{16}6-4[128:17],,,4,6,,3,,7-3[128:17],,,3,7,,2,,
{16}1b,,6,5,7-3[128:17],,8,,1/7,,,2,2-6[128:17],,4,,
{16}2/5,,,7,7-4[128:17],,1,,7/2,,,3,3-8[128:17],,4,,
{16}3b/5b,,,6,6^3[128:17],,8,,1/6,,,2,2^7[128:17],,4,,
{16}2/5,,,6,6-1[128:17],,8,,1/6,,,2,2-5[128:17],,4,,
{16}2b/5b,,6,7,8-4[128:17],,1,,2,,3,2,1-5[128:17],,8,,
{16}7,,6,7,8,,2,,{32}4/7x,6,,,,,2x/5,3,,,,,4xh[32:1]/8xh[32:1],
E
