&title=[u5F41]彁
&artist=LeaF
&first=0.086
&des=
&des_7=n3kK!Ow0
&lv_7=14+?
&inote_7=(125){4},,,,{2}B2h[8:1]/E3h[8:1]/B3h[8:1]/B7h[8:1]/B6h[8:1]/E7h[8:1]/D3h[8:1]/D7h[8:1],
{8}5/B3h[8:1]/Ch[8:1]/B4h[8:1],6,7,8,
{32}7/Ch[8:1]/B1h[8:1]/B2h[8:1],6,{16}5,{4},{16},,{32}2/Ch[8:1]/B6h[8:1]/B5h[8:1],3,{16}4,{4},{16},,{7}3h[7:1]/2h[7:1]/7V51[0.5486##0.2743],
{14}8$,2$,{7}7$,3p1[0.5486##0.2743],6,3$/7,8h[35:33],
{5}8,{10}7,1,{5}8,1,8h,
{7}6h[7:1]/5h[7:1]/1V73[0.5486##0.2743],{14}2$,5$/6$,{7}1$,6p5[0.5486##0.3566],1$,6$/2$,3h[35:33],
{10}2,2,4,4,3,3,,2,3,4,
{7}1h[7:1]/2h[7:1]/6V84[0.5486##0.4114],{14}5$,1$,{7}6$,2qq5[0.5486##0.3429],7$,2$/7$,7$,
{10}6h,2$,7h,3$,8h[2:1],4$,,4$,3$,2$,
{40}1/2h[10:1],2,3,4,{10}5,{5}2,{10}7$,8$,{15}2$/1V75[0.768##0.96],,45,,78,{16},{240},{4}1$/5V31[0.96##0.96],
3,1V75[0.96##0.96],7,
5-3-1[0.96##0.704],3,7,8h[4:1]/8?<4[20:1],
{80}8$b,7$,6$,5$,{20}4$,7h,7h,{10}7h,{20}4h,4h,{10}4h,8h[10:1],2h[10:1],{20}3h,3h,{10}3h,{20}1h,1h,
{10}1h,{20}5/3$,5/3$,5/3$,5/3$,{10}5/3$,4,
{14}4$/6V48[0.5486##0.2057],,8$,3$,6$,,3$,
7pp5[4:1]*pp6[84:19],4$,{16},{112},{28}4$,7$,{16},{112},{14}4$,{16},{112},{4}2qq4[4:1]*qq3[84:19],2$,
8<7-5[28:5]*-6>5[28:5],8>1-3[28:5]*-2>3[8:1],8w4[28:3]*-4[28:3],8$,
{80}3$/5$,6/2,{40}7/1,{20},6,5,{10}6,{20}3,4,{10}3,5/4,5,4,4,{20}7,8,
{10}7,{20}2,1,{10}2,5,5/4,{14}5/4/6/3,,4$,7$,3$/6-8[0.5486##0.2057],,6-4[0.5486##0.2057],
1h[4:1],6pp3[0.5486##0.5486],,6$,,6$,,{2}2h[4:1],
{4}6h[4:1],4,2h[4:1],5,
{56}5/1$/6?>1[0.5486##1.0971],2/6,3/7,4/8,{28},,,,,,{7}7/6,,6,,6,
,7$/3?s7[0.5486##0.5486],,3,,4$/8?-4[0.5486##0.2057],,8$/5?>8[0.5486##0.8914],
,6/5,,8,,4$/1?-4[0.5486##0.2057]/7?-4[0.5486##0.2057],
,7/1$/5?s1[0.5486##0.3429],,6h[7:2],,
{28}2$/8?-2[3.8400##0.2743],,,,,,,,
6$/8?-6[3.2914##0.2743],8?-2[3.2846##0.2743]*-2[3.2846##0.2743],,,,,,,
3$/8?-3[2.7429##0.2743],8?-6[2.736##0.2743]*-6[2.736##0.2743],,,,,,,
5$/8?-5[2.1943##0.2743],8?-3[2.1874##0.2743]*-3[2.1874##0.2743],,,,,,,
4$/8?>4[1.6457##0.2743],8?-5[1.6389##0.2743]*-5[1.6389##0.2743],,,,,,,
4$/8?<4[1.0971##0.2743],8?>4[1.0903##0.2743]*>4[1.0903##0.2743],,,,,,,
4$/8?-4[0.5486##0.2743],8?<4[0.5417##0.1783]*<4[0.5417##0.1783],,,,,,,
8$/8?<4b[0##0.2743]*>4b[0##0.2743]*-6b[0##0.2743]*-5b[0##0.2743]*-4b[0##0.2743]*-3b[0##0.2743]*-2b[0##0.2743],,,,,,,,
{28}7$b,8,1,2,3,4/8,5,6,7,1$/8$,2,3,4,5/1,6,7,8,5$b/1$,4,3,2,5$/1$,8,7,6,4$/5$,3,2,
1,8$/4$,7,6,8$b/5,7,6,5,3$/4$,2,1,8,7$/4$,5,6,7,8,1,2,3,7$b/4,8,1,2,3,4,5,6,
{20}7/5h[20:1],1h[20:1],7h[20:1],3h[20:1],{10}1h[10:1],{20}5h[20:1],7h[20:1],3h[20:1],5h[20:1],{10}1h[10:1],{20}8h[20:1],5h[20:1],2h[20:1],6h[20:1],1h[20:1],7h[20:1],3h[20:1],5h[20:1],
1h[20:1],3h[20:1],2h[20:1],5h[20:1],8h[20:1],4h[20:1],2h[20:1],6h[20:1],5h[20:1],1h[20:1],4h[20:1],7h[20:1],1h[20:1],8h[20:1],3h[20:1],6h[20:1],,4h[20:1],{10}7h[20:1],
{28}2$b,1,8,7,6,5/1$,4,3,2,8$/1$,7,6,5,4$/8$,3,2,1,8$/4$b,5,6,7,8/4$,1,2,3,5$/4$,6,7,
8,1$/5$,2,3,4$/1$b,2,3,4,5$/6$,7,8,1,2$/5$,4,3,2,1,8,7,6,2$b/5$,1,8,7,6,5,4,3,
{20}2/5h,5h,5h,5h,5h,,4h,4h,4h,4h,4h,,6h[20:1],5h[20:1],7h[20:1],3h[20:1],4h[20:1],2h[20:1],7h[20:1],8h[20:1],6h[20:1],2h[20:1],1h[20:1],3h[20:1],5h[20:1],4h[20:1],5h[20:1],4h[20:1],5h[20:1],,
{28}1h,1$,1,1$,1h,1$,1h,1$,1,1$,1h,1$,1,,
{28}8$/3$b,4,5,6,7/4,8,1,2,4$/3$,5,6,7,8/4,1,2,3,4$/8$b,7,6,5/1,4,3,2,1$/8$,7,6,5,4/1,
3,2,1,8$/4$b,5,6,7,8/5,1,2,3,4,5,7$/6$,8,1,2,3,4,5,6,7$/2$b,1,8,7,6,5,4,
{7}6h[7:4],2h[7:3],5h[7:2],3h[7:1],4,2/3/6/5,2h[14:3]/5h[14:3]/6h[14:3]/3h[14:3],
,{14}2/3/5/6,6/5/3/2,3/2/7/6,6/7/3/2,{7}8/7/2/3,{14}8x/7x/3x/4x,8x/7x/4x/3x,6x/7x/3x/2x,7x/6x/2x/3x,6x/5x/1x/2x,5x/6x/1x/2x,
{28}8$bx/4$x,7,6,5,4/8,3,2,1,8/4$,3,2,1,8/4,7,6,5,4/8$b,1,2,3,4/8,5,6,7,8/4$,5,6,7,
8/4,1,2,3,7$b/4,6,5,4,8$,7,6,5,1$,8,7,6,2$,1,8,7,6,8bp4b[0.576##0.192]*q4b[0.576##0.192],1,2,3,4,5/3,6/2,
{20}7/1,B8/E8/B7/E1/B1,{16},{64},,{160},{20}5/3,{16},{64},,{160},{20}3/5/2/6,{16},{64},,{160},{20}2/3,7$/6$,2/3,7$/6$,{10}2h[20:3]/3h[20:3],{20},6/7,{16},{64},,{160},{80}3,
4,{64},{320},,,{80}7,6,{64},{320},,,{80}3,4,{64},{320},,,{80}7,6,{64},{320},,,{80}3,4,{64},{320},,,{80}7,6,{64},{320},,,{80}3,4,{64},{320},,,{80}7,6,{64},{320},,,{80}{70}3,4,,,,,,,,,,,
{56}5-3>2v8<7-5[0.8229##1.92]*-3>2v8<7-5[0.8229##1.92],4/6,{28},{56}5,4/6,{28},{56}5-3>2v8<7-5[0.5486##1.92],6/4,{28},{56}5,6/4,{28},{56}5-3>2v8<7-5b[0.2743##1.92],4/6,{28},{56}5,4/6,{28},{2}5$b,
{8}4,4,3,3,
{28}2$/8?<4b[8:1]*>4[8:1],3,{14}4h/4?-6<7v1>2-4[1.7829##1.92],{16},{64},,{224},,,{56}8h[56:1],7h[56:1]/1h[56:1],6h[56:1]/2h[56:1],5h[56:1]/3h[56:1],
{28}4h[56:1],,,,,,,{56}4-6<7v1>2-4[0.8229##1.92]*-6<7v1>2-4[0.8229##1.92],3/5,{28},{56}4,5/3,{28},{56}4-6<7v1>2-4[0.5486##1.92],5/3,{28},{56}4,5/3,{28},{56}4-6<7v1>2-4b[0.2743##1.92],5/3,{28},{56}4,5/3,{64},,{224},{10}4$,
{28},,,,,B5,,,,,,,,,,,,,,,,B2,,,,,,,,,,,,,,,,E6,,,,,
{4},{16},,{64},{320},,,{7}1h[7:2]/1?-5[0.5486##1.6457],
,7h[7:2]/1?-6[0.5486##1.0971]*-4[0.5486##1.0971],,3h[7:2]/1?w5[0.5486##0.2743],,1,
,8h[7:2]/8?-4[0.5486##1.6457],,2h[7:2]/8?q5[0.5486##1.0971]*p3[0.5486##1.0971],,6h[7:2]/8?w4[0.5486##0.2743],,8,
,7h[7:2]/7?s3[2.7429##0.2743],{14},7?s3[2.3314##0.2743]*s3[2.3314##0.2743],1h[7:2],,,,{7}5h[7:2],
7?s3b[1.3714##0.2743],3h[7:2],,7h[7:2],,7$,,{14}5b/6b/1bV75[0.5468##0.2]/2b,
{28},1/5,2,3,4,5,{7}1>5[0.5486##0.2],{28}1,8,7,6,{7}5-1[0.5486##0.2]/1-5[0.5486##0.2],{28}15,26,37,48,{7}15,
24,{28}4/2-6[0.5486##0.2],5,6,7,8,1h[28:3],,,{7}2<6[0.5486##0.2],1,2/5<1[0.5486##0.2743],3,
{28}1/5>1[0.5486##0.2743],2,3,4,{7}5,{28}1-5[0.5486##0.2]/5,8,7,6,{7}5,1-6[0.5486##0.2]*-6[0.5486##0.2]/5,7,1-4b[0.5486##0.2],
2/5,8/1>5[0.5486##0.2]*<5b[0.5486##0.2],6,{28}1w5b[0.5486##0.1371],2/8,3/7,6/4,,,,,{28}1b,C1f,,,,,,,{28}2-5[0.5486##0.2057]*-4[0.5486##0.2057],
1,2,3,{7}2,2/8q4[0.5486##0.2057]*-2>3[0.5486##0.2057],7,6/8-6>5[0.5486##0.2057]*p4[0.5486##0.2057],7,1/8,
1,{28}7-3[0.5486##0.2057]*-4[0.5486##0.2057],8,7,6,{7}7,7/1<8-6[0.5486##0.2057]*-7-5[0.5486##0.2057],2,3/1V35[0.5486##0.2057]*>2-4[0.5486##0.2057],2,
1-5[0.5486##0.2057]/8-5[0.5486##0.2057]/7-5[0.5486##0.2057],,7-3[0.5486##0.1714]/8-3[0.5486##0.2057]/1-3[0.5486##0.2057],,8$/7$/1$,,5-1[0.5486##0.2057]/4-8[0.5486##0.2057]/3-7[0.5486##0.2057]/6-2[0.5486##0.2057],
7-5[14:1]/8-5[14:1]/1-4[14:1]/2-4[14:1],6$/5$/4$/3$,,{28}3$,2$,1$,8$,7$,6$,5$,4$,
{56}3$/8w4[0.5486##0.2743],8?w4[0.5486##0.24],8?w4[0.5486##0.2057],8?w4[0.5486##0.1714],8?w4[0.5486##0.1371],8?w4[0.5486##0.1029],{28}8?w4[0.5486##0.0686],,,,,{28}8$/7$/1$,
Cf,,,,,,,{7}7/3v8[0.5486##0.2057],,3/7-4[0.5486##0.2057],,1/7,
{20}1,2,3,4/5,,7,8$,7,8$,7,6$,7,6$,7,5<7[0.576##0.096]*<7>8[0.576##0.192]*<7>8>1[0.576##0.288]*<7>8>1>2[0.576##0.384]*<7>8>1>2>3[0.576##0.48],8,5$,8,5$,8,
{7}5-1[0.5486##0.1371]*-8[0.5486##0.1714]*-2[0.5486##0.1714],,5,,6/4h[7:2],,1h[7:2],
{30}8,7,{210},{28}6,5,4,{16},{112},{28}7h,{70},{20}2,5h,2,3h,2x/1xh,8,7,6,5,{40}4/1,8,7,6,5,4,3,2,1,8,
{7}7bw3b[0.5486##0.2743]/6bw2b[0.5486##0.2743],,7/6,,{28}1w5b[0.5486##0.2743]/2w6b[0.5486##0.2743],8/3,7/4,6/5,,,,,
{14}12,,,3$,6$,{28}3$,{42}7b,6,5,4,3,2,1,8,7,6,{40}5,4,{240},,,,,,,,,,{30}2$,3$,2$,3$,2$,,7$,6$,7$,6$,7$,1$,{20}4bh,3$,4,2$,5h,4$,5,1$,6h,5$,6b,8,{40}3$,4$,3$,4$,{10}3$,{40}6$,5$,6$,5$,6,7,8,1,
2b,3,4,5,{20},1$,8,4$,5,8$,7,1,{56},{4}5bh[10:1]/B1h[5:1]/E2h[5:1]/B2h[5:1],{40}6$,5$,4$,3$,2$,1$,8$,7$,6$,5$,
{4}4h[28:11]/B8h[5:1]/E1h[5:1]/B1h[5:1],{84}E3,A3/B3,E4,B4/A4,E5,B5/A5,E6,B6/A6,E7,A7/B7,E8,A8/B8,E1,A1/B1,,{28},,,,2<7[0.5486##0.2057]/6>3b[0.5486##0.2057],7/3$,8/4$,1/5$,,,,,{7}2b/6$b,
E7h[16:1]/B6h[16:1]/B7h[16:1],{28}4-8[0.5486##0.2057]*-7[0.5486##0.2057]*-1[0.5486##0.2057],4h,4$,4,,,,,{7}4b/5$b/3bh,{28},6h[14:1],,2h[14:1],{64},,{224},{40}7$,8$,7$,8$,6$b,5$,4$,3$,{20},2,
{40}2,1,3h,4,5,6,{20}8$b,3h,4,2$,6$,5,7bh,{40}2$,3,4h,5$,2h,3$,4,5h,{20},{40}1$b,8$,7$,6$,5$,4$,3$,2$,
{20}5/1$,5$,5b,5h,5,{40}5/1$,6/2$,7/3$,8/4$,1/5$,2,3b,4,5/1b,6h[40:1],{10}1h[40:3],{60}8$,7$,6$,5$,4$,3$,2$b/6,1$/5,8$/4,{300}3bh[4:1]/3?<5<7b[200:13],7h[150:37],7?>1>3[15:1],,{280}1?>3[0.4663##0.1303]*>3[0.4663##0.1371],5?<7[0.4594##0.1371]*<7[0.4594##0.1371],{30},,,,,,,{120}7?-3b[0.5486##3.6343],
D8f/D4,8h/4bh,D1/D5f,1$/5$b,D2f/D6,2/6$b,D3/D7f,3$/7b,,,,,,,,,,,,,,,,,,,,,{240},{28},{7}7?V13[3.2914##0.005],,7?V53[2.7429##0.005],,7?-4[2.1943##0.005]*-2[2.1943##0.005],
,7?<3b[1.6457##0.005],,7?>3b[1.0971##0.005],,7?w3[0.5486##0.005]*w3[0.5486##0.005],
