&title=IMPLANTATION
&artist=TOMOSUKE
&first=0.76
&des=yoroko 原曲初出 drummania 2ndMIX (2000) 本谱面使用的是 IIDX、beatmania III 和 pop'n music 所使用的改编音源。 GENRE: GOA TRANCE TOMOSUKE:是纵连,我加了纵连
&lv_5=14+
&inote_5=(145)
{1},,
{16}7,,7,7,,7,7,,7,,7,7,,7,7,,
7,,7,7,,7,7,,7,,7,7,,7,7,,
7,,7,7,,7,7,,7,,7,7,,7,7,,
7,,7,7,,7,7,,7,,7,7,,7,7,,
2,3,2,3,4,3,4,3,5,3,4,,4,4,3,4,
2,3,2,3,4,3,4,3,5,3,4,,4,4,3,4,
2,3,2,3,4,3,4,3,5,3,4,,4,4,3,4,
2,3,2,3,4,3,4,3,5,3,4,,4,4,3,4,
2,3,2,3,4,3,4,3,5,3,4,,4,4,3,4,
2,3,2,3,4,3,4,3,5,3,4,,4,4,3,4,
2,3,2,3,4,3,4,3,5,3,4,,4,4,3,4,
2,3,2,3,4,3,4,3,5,3,4,,4,4,3,4,
73,,47,47,4,37,7,4,7,3,7,57,4,7,37,,
73,,47,47,4,37,7,4,7,3,7,47,3,27,37,,
73,,47,47,4,37,7,4,7,3,7,57,4,7,37,,
73,,47,47,4,37,7,4,7,3,7,47,3,27,37,,
73,,47,47,4,37,7,4,7,3,7,57,4,7,37,,
73,,47,47,4,37,7,4,7,3,7,47,3,27,37,,
73,,47,47,4,37,7,4,7,3,7,57,4,7,37,,
73,,47,47,4,37,7,4,7,3,7,47,3,27,37,,
6,6,6,,6,6,6,,6,6,6,,6,6,6,,
2,2,4,,4,,3,2,,2,4,,2,,2,,
6,6,6,,6,6,6,,6,6,6,,6,6,6,,
2,2,4,,4,,3,2,,2,4,,2,1,4/5b,,
6/5b,6,6,,6,6,6,,6,6,6,,6,6,6,,
2,2,4,,4,,3,2,,2,4,,2,,2,,
6/5b,6,6,,6,6,6,,6,6,6,,6,6,6,,
2/5b,2,4,,4/5b,,3,2,5b,2,4,,2/5bv2v5-1-5v8v5v2v5-1-5v8v5v2v5-1-5b[1:2],1,4/5b,,
{1}5b,,
{16},,1,4,3,8,3,4,7,4,3,6,3,4,5,4,
4,5,3,4,4,6,2,4,4,7,1,4,4v7v4-8-4v1v4v7v4-8-4v1v4v7v4-8-4[1:2],8,8,4,
{1}4,,
{16},,8,5,6,1,6,5,2,5,6,3,6,5,4,5,
5,4,6,5,5,3,7,5,5,2,8,5,5>4-8<7-3>2-6>5-1b[8:31],1,1<8-4>3-7<6-2<1-5[8:31],5,
{1}5,,Cf,,
{16}8,8,8,,8,,8,8,,8,,8,8,,8,,
1,1,1,,1,,1,1,,1,,1,1,,8b/1,,
8,8,8,,8,,8,8,,8,,8,8,,1/8b,,
1/8b,1,1,,8b/1,,1,1,8b,,{24}8,1,8,{16}2,7,2,7,
7-5-7-5-7-5b[8:7]/2,2,2,,2,,2,2,,2,2,2,3,3,3,3,
2,2,2,,2,,2,2,,3,,3,1,1,3,3,
2,2,2,,2,,2,2,,2,2,2,3,3,3,3,
2,2,2,,2,,2,2,,3,,3,1,1,2,2,
2-4-2-4-2-4[8:7]/7,7,7,,7,,7,7,,7,7,7,6,6,6,6,
7,7,7,,7,,7,7,,6,,6,8,8,7,7,
7,7,7,,7,,7,7,,7,7,7,6,6,6,6,
72,72,72,,72,,72,72,,62,,62,72,8,72,6,
