&title=AlterGate
&artist=MisoilePunch♪~タケノコ添え~
&first=0.01
&des=dissipae
&lv_5=14
&inote_5=(199){4},,,,{1}3-6[2:1],
{8}6,,,5,,,{4}4,
{8}3/5-7[8:3],,,1h[8:3],,,,,{2}5h[2:1],
3v2-4-1[1:1],
{4}5h[8:3],,,7v6-8-5[4:3],
,4h[4:1],,2,
{1}1h[4:3]/6h[8:3],
{24},,,,,,,,,,,,5x/4x,3x/6x,{12}7xh[24:7]/2xh[24:7],{24},,,,,,,,{8}8b/3b,
3,4,2-8[8:1],,8,7<4[8:1],7,
1-5[8:1],1,3,2,1/8-3[8:1],7,{4}8/6,
{8}6b,5,7,7-4[8:1],,4,{4}3,
{8}2,4,3,3v8[8:1],7-4[8:1],3,{4}7,
{16}5/2h[24:1],,,3/6h[24:1],,,{8}7/4h[24:1],{16},1/6h[24:1],,,2/7h[24:1],,,3/8h[24:1],
,,{8}5/3h[24:1],{16},5/7h[24:1],,,2h[24:1]/5h[24:1],,,7h[24:1],,,{8}4h[24:1]/2h[24:1],
{1}C/8bx<1[8:5],
{12}3,4,3,6,5,6,2,4,3,7,5,6,
{4}7/3-8[8:1],7,{8}7,5,7,4,
{4}6/3,{8}6,2,{4}6/2,6/1,
B5/1q4[2:1],B6,B7,B8,
8x/5x,{8}8,4,8,3,{4}8/3,
2/5-8[8:1],2,{8}2,7,2,6,
{4}1/6,{8}1,7,{4}1/7,{8}1,8,
{4}E2/8p6[2:1],E3,E4,E5,
{8}5x/1xh[8:1],5,2/6h[8:1],2,{4}3/7,8/4,
2/8-4[4:1],4<7[4:1],3,2,
2-8[8:1],{8}8,7-3[8:1],,5,{4}4V25[4:1],
{8}8,8,7,7,6-4[8:1],6,2-8[8:1],2,
3,4,5,6/4,1/7h[8:1],2,1/3h[8:1],8,
{4}7x-4[8:1]/3x-8[8:1],7x/3x/C,6x-1[8:1]/2x-5[8:1],6x/2x/C,
{8}3,4/2,5/1,8/6,{4}5-2[8:1],8,
{16}8,5,{8}6h[8:1],1,{24}4,3,4,{8}3h[8:1],6,{16}8,5,{8}6h[8:1],
3,{16}3,4/2,{4}1/5h[8:1],{16}4,6,3,7,2,8,1,7,
{8}2x<7[8:1],6x,{4}6x,{8}5x-1[8:1],3x,{4}3x,
2/7h[4:1],{8}2,1-5[8:1],,7,{4}6h[4:1],
{16}2,3,4,5,8,7,6,5,3,2,1,8,5,6,7,8,
2,4,3,5,4,6,5,7,8,6,1,7,2,8,{8}3,
4x-1[8:1],7x,{4}7x,{8}8x-4[8:1],6x,{4}6x,
{16}5h[16:1],,,4h[16:1]/6h[16:1],,,{8}7h[16:1]/3h[16:1],{16}4,6,4,6,3,5,3,5,
{4}4/2-6[8:1],{8}5,7<4[8:1],,1,{4}2<7[8:1],
{8}4,4,{16}4,3,2,1,8,7,6,5,8x,4x,8x,4x,
{4}1x-5[8:1],{8}7,7h[8:1],{16},,2,4,3,6,5,7,
{4}4-8[8:1],{8}2x,2xh[8:1],{16},,7,6,5/4,3,2,1,
{4}8-5[8:1],{8}8,6x-2[8:1],,6,{4}1-5[8:1]*-7[8:1],
{2}A1,{4}4/6h[4:1],4/1h[4:1],
{12}7,4,7,2,5,2,6,4,8,3,5,1,
{24}6,7,8,2,3,4,6,7,8,2,3,4,1x,2x,1x,2x,1x,2x,{32}8,7,6,5,4,3,2,1,
{4}8-4[8:1],{8}8,3-8[8:1],,3,5,5,
2h[16:1],2h[16:1],5/3h[16:1],5/3h[16:1],6/4h[16:1],6/4h[16:1],7/5h[16:1],7/5h[16:1],
{1}4/8xv7-1-6[1:2],
{32}B2,B3,{4},,,{16},,,{1}5b-3v4-2b[4:5],
{32}B7,B6,{4},,,{16},,,6,
5,{8}6,7/4,{16}3,4,{8}3,5/2,{16}6,5,{8}6,
7/4,{16}3,8,3,8,4,7,4,7,3,6,2h[8:1],5h[8:1],,,3,
4,{8}2,1/5,{16}6,5,{8}6,8/4,{16}2,4,{8}3,
1/6,{16}7,1,7,1,6,2,6,2,5,3,4h[8:1],3h[8:1],,,1/7,
7h[16:3]/1h[16:3],{48},,,,,,,,,,,,{24}6,5,6h[48:11],{4}5h[8:1],{16}2/8,2h[16:3]/8h[16:3],{48},,,,,,,,,,,,{24}3,
4,3h[48:11],{4}4h[8:1],{32}5,6,7,8h[32:5],{8}2,2,{32}2,3,4,5h[32:5],
{8}6,6,{32}6,7,8,1h[32:5],,,,,,,,,{8}5b/1b,{16},7b-4[8:1]/3b-8[8:1],{1},,{4},,{8},{2}C,
{8},,,,3-8[4:1],,,5-1[4:1],
,,{4}8w4b[8:1],8b/B8/C/B4/A4,{8}1,1,
{16}7,8,6,8,{8}7-4[8:1],2,7,1-5[8:1],5,1,
6-2[8:1],4,{4}6/3w7b[8:1],3b/B3/C/B7/A7,{8}5,5,
{16}2,4,3,4,{8}2-5[8:1],5,2,6<1[8:1],1V75[8:1],6,
3,3,{4}4-8[8:1],{8}4/6,5-2[8:1],1,5,
8-4[8:1],7,8,5-2[8:1]*-8[8:1],3,5,,,3-8[8:1],
4,6-1[8:1],5,2-6[8:1],3,7,7-4[8:1],
8,2,1,1,{16}8,4,8,4,1,5,1,5,
2,6,2,6,{4}3w7[8:1],,1/5x-2[8:1],
6x/5x-8[8:1],5x/4x-1[8:1],3x/4x-7[8:1],4x/5x-1[8:1],
5x/8x,8x/2x,{12}3,4,3,4,1,8,
1,8,5,6,5,6,{32}4,3,2,1,{8}7,{32}7b,6,5,4,{8}1,
{32}1b,2,3,4,,,,,3/8b,2/7,1/6,5,,,,,{8}3b/5b,5/3,4,7b/5b,
7/5,6,2b/8b,2/8,1,6b/2b,5/3,B6/E6/B5/B2/B3/E3,
{4}7b/8b,{8}1/6h[8:1],2,{16}3,4,1,8,5,6,2,8,
3,4,1,7,5,6,{8}3,4b/8b,8b/4b,{32}4b,3,2,1,8,7,6,5,
{4}4bx>1[8:1]*<7[8:1],4bxw8[8:1],4bx,{8}5/3,2,
4/6,7,{16}3,4,{8}2h[8:1],{32}8b,7,6,5,,,,,{8}2,{32}2/4b,5,6,7,
,,,,{8}7,{32}1b/7,2,3,4,,,,,3/7b,2/6,1/5,4,,,,,{8}8-4[8:1],8,
5-7[8:1],5,3,2,{24}1b,2,3,4,,,{8}7/4,{24}7b,6,5,
{8}4-8[8:1],2,{4}4b/1,{16}2,7,3,8,{8}4x,1/3h[8:1],
{32}1b,8,7,6,,,,,{16}7,2,6,1,{8}5x,8/6h[8:1],{32}8b,1,2,3,,,,,{16}5,
4,5,4,{8}6/3,7,{16}7,8,6,1,8-4[8:1],7,{8}1,
{4}8b/6b-2[8:1],6-8-2-4q5[4:3],,,,,{2}7s3[4:7],
,,,1-5[4:5],
{6},,,,,,,,,,3b/1bh[12:1],
2b/8bh[12:1],
1b/7bh[12:1],2b/6bh[12:1],3b/5bh[12:1],4b,6b/8bh[12:1],7b/1bh[12:1],
{16}2b,8b,2b,7b/3b,,6b,4b,6b,{2}5b-8b[8:1]/3b-6b[8:1],
{1},{4},,{16}1,
2,3,4,5/1,8,7,6,
5/8-4[8:1],1,2,3,{4}4/8,{16}3,2,1,8,5,6,7,8,
1/5-1[8:1],4,3,2,{4}5/1,{16}4,3,2,1,8/4,7,6,5,
4-8[8:1],3,2,1,{4}4/8,1<6[8:1],{8}5,4,
{4}3-7[8:1],{16}3,1,{8}1,{4}2>5[8:1],{8}2/1,8,
{4}7-4[8:1],8/7,{8}3>8[8:1],4,{4}3/5,
6<1[8:1],{8}6/4,3,{4}2h[8:1]/5h[8:1],4h[8:1]/6h[8:1],
{8}7/8,2,3h[16:1]/1h[16:1],1h[16:1]/3h[16:1],3h[16:1]/1h[16:1],{16}8,4,7,5,{8}6,
{16}2h[8:1]/7h[8:1],,,3h[8:1]/6h[8:1],,,{8}4/5,8b/3b,3,4,2-8[8:1],
3,4,5,6,{16}7,8,{8}6,5,7-4b[8:1],
8v3b[8:1],7,{4}8,{8}6b,5,7,7-4[8:1],
5,4,3,2,{16}2,1,{8}3,3,3v8b[8:1],
4-7b[8:1],3,{4}4,{16}3h[24:1],,,2h[24:1],,,{8}1h[24:1],
{16}7h[24:1],,,5h[24:1],,,{8}6h[24:1]/4h[24:1],{12}3,3,3,1,1,1,
7,7,7,5,5,5,{2}3-7V14V62[4:3],
{4},,,{32}8b/7b,6/1,5/2,4h[32:83]/3h[32:83],{1},,{4},,{16},,{32}A4/A3,
B4/B3,C,B7/B8,{8}A7/A8,
E
