&title=森奥虚跡
&artist=ShiBa
&first=0.339
&des=aqua
&clock_count=3
&wholebpm=192.000
&lv_5=13+
&des_5=aqua
&inote_5=(192)
{4},,,
{4},,,,,,
{4}3h[4:10]/4h[4:2],,,5h[4:2],,,
{4}6h[4:2],,,7h[4:1],,B7,
{4}6hx[4:10],,2h[4:1],,,3h[4:1],
{4},,4h[4:1],,{16}5,6,5,,{8}4,6,
{8}E4h[8:1],7,5,E3h[8:1],8,6,E2h[8:1],7,5,Ch[8:1],8,7,
{8}1,E6h[8:1],2,E4h[8:1],8,7,E2h[8:1],5,3,E8h[8:1],1,5,
{8}E4h[8:1],6,6,1,{16}7,E3h[16:3],{8},8,8,4,6,{16}2,E7h[16:3],{8},
{4},,,1b,,,E8,,,E7,,,E6,,,{4}3b/4b,{16}2/5,,3,4,3,,2,,
{8}1h[4:1],,5,6,7<4[4:1],,
{8}4q8[4:1],,8q4[4:1],,1,,
{8}2h[4:1],,5,6,7-3[4:1],2,
{8}3-5-8[8:3],,,,E2,,
{8}4h[4:1],,8,7,6<1[4:1],,
{8}1p5[4:1],,5p1[4:1],,1<4[8:3],,
{8}4,,,,2,3,
{8}5p4[8:3]/4,,C,,,,
{8}2-5[8:1],1,8,7-4[8:1],6,5,
{8}3-8[8:1],2,1,7-4[8:1],,,
{8}1-6[8:1],2,3,4-8[8:1],5,6,
{4}7<3[4:1],3V17[4:1],1,
||
{8}2-5[8:1],1,8,7-4[8:1],8,1,
||
{8}2-7[8:1],3,4,5-8[8:1],,,
||
{8}1-5[8:1],2,3,4-8[8:1],6,7,
||
{4}7<3[4:1],3V17[4:1],1,
{16}3,4,5,6,7,8,1,2,{8}6,6,
{16}2,1,8,7,6,5,4,3,{8}7,7,
{16}2,8,1,8,1,8,2,7,1-5b[8:1],8,2,7,
{8}1b,,,,C,,
||
3/5+X=3/4,
X=3/20
{5}2x>5[5:1],5<8[5:1],8>3[5:1],{20}3x<6q4[2:1],,,{8}6,7,7,8,8,8x,
{5}1x<6[5:1],6>3[5:1],3x>8[5:1],{20}8<5p7[2:1],,,{8}5,4,4,3,3,3,
{5}2x-5[5:1],5-8[5:1],8-3[5:1],{20}3x-6q5[2:1],,,{8}6,7,7,8,8x,8,
{5}1x-6[5:1],6-3[5:1],3x-8[5:1],{20}8-5p6[2:1],,,{8}5,4,4,3x,3,3,
{5}2x>5[5:1],5<8[5:1],8>3[5:1],{20}3x,,,{8}4,5,6,
{5}7x-4[5:1],4-1[5:1],1-6[5:1],{20}6x,,,{8}5,4,3,
{8}2-5[8:1]/7-4[8:1],,2/7,,E1/B1,B7,
{24}B3,B4,E5,{8},{4},,E6,E5,E4,
{4}B2/E3,,{8},E1/B8,{12}E8,B7,E7,B6,E6,B5,E5,B4,E4,
{24}B3,E3/B2,,{8},{4},,E7/B6/E5,,,
{4}E1/B1/E3,,,E7/E6/E5,,,
{4}Ch[8:1]/2h[4:5],,,E4,E5,E6,
{4}Ch[8:1]/7h[4:5],,,E6,E5,E4,
{4}Ch[8:1]/3h[8:11],,,{16}A2,D2,A1,D1,A8,D8,A7,D7,
{16}A6,D6,5xw1[4:5],,{4},,,,,,
{8}3h[8:1],4h[8:1],2h[8:1],5h[8:1],1pp4[2:1],,6,6,,7,7,,
{8}8h[8:1],2h[8:1],7h[8:1],1h[8:1],6pp1[2:1],,3,3,,2,2,,
{8}3h[8:1],1h[8:1],4h[8:1],8h[8:1],5qq1[2:1],,6,6,,7,7,,
{8}6h[8:1],8h[8:1],5h[8:1],1h[8:1],4>4[3:2],,{12}A4,A3,A2,A1,A8,A7,A6,A5,A4,
{8}2,2h[8:3],1,8,7h[8:4],,2,3,4h[8:3],1,2,3,
{8}5,5h[8:3],6,7,8h[8:4],,6,5,4h[8:3],7,6,5,
{8}3,2h[8:2],8,7,6h[8:4],,5,4,3h[8:3],4,2,1,
{8}8,7,6h[8:2],4,3h[8:4],,B6/B7,,,,2/4,5,
{16}8/6,1,2,3,4,5,6,7,8,1,2,3,{8}8b/4h[8:4],8,7,7,6,6,
{16}3/5,2,1,8,7,6,5,4,{4}3-8[8:1]/7-4[8:1],3b/7b,{8},8,1,2,
{8}3h[4:1],5,6,4h[4:1],5,6,{8}2,2,5,{16}3,4,{8}3,2,
{8}1,6,{16}8,7,{8}8,1h[4:1],6,5,2h[4:1],6,5,4,3,
{16}1/2,8,7,6,5,4,3,2,1,8,7,6,{8}1b/5h[8:4],1,2,2,3,3,
{16}6/4,7,8,1,2,3,4,5,{4}6-1[8:1]/2-5[8:1],6b/2b,{8},1,8,7,
{8}6h[4:1],4,3,2h[24:7],{12}8,7,6,{6}5/3,3p2[2:1]/5,,
{8}7,6,5h[4:2],,,,1w5b[2:1],,,,,,,,
||
{8}5h[4:1],4,3,6h[4:1],4,3,{8}7,7,4,{16}6,5,{8}6,7,
||
{8}8,3,{16}1,2,{8}1,8h[4:1],3,4,7h[4:1],3,4,5,6,
{4}7h[4:3],,,C,,,
{4}6h[4:3],,,C,,,
{4}5h[4:3],,,C,,,
{4}4h[4:3],,,C,,,
{4}4>5[4:11]/5,,,B3/B4,,,
{4}B1/B2,,,B6/B7,,,
{4}4>5[4:5],,,,,,
{4}E1,,,,,,
{8}8/3,{16}2,1,{8}2,7,5>2[8:1],6,5b<8[8:1],,5bv2[8:1],,5,6,
{8}7/1,{16}8,2,{8}1,3,4<7[8:1],2,4b>1[8:1],,4b-8b[8:1],,4b,,
{8}2,2,2/E1/B8,2,2/E5/B4,,7,7,7/E3/B2,7,7/E5/B5,7,
{8}7/1,1,1/B4/E5,1,1/B7/E7,,{12}2,2,4,7,7,5,1b,,,
{8}2/6,{16}7,8,{8}7,2,4q8[8:1],3,4b-1[8:1],,4b<7[8:1],,4,3,
{8}2/8,{16}1,7,{8}8,6,5p1[8:1],7,5b-8[8:1],,5b>2b[8:1],,5b,,
{8}7/1,7,5/7,5,5/E7/B7,,2/8,2,4/2,4,4/1,1,
{8}7/1,7,7/5,5,5/E7/B7,,{4}1bp4b[4:1]/8bq5[4:1],,E5f,
{4}1>6[4:1],6V82[4:1],2V46[4:1],{4}6pp3[16:7],7,5,
{4}5<2[4:1],2V46[4:1],6V82[4:1],{4}2pp7[16:7],4,1,
{4}2p5[4:1],5p8[4:1],8>4[4:1],{4}4qq5[16:7],6,8,
{4}1<4[4:1],4>8[4:1],8<4[4:1],{4}4pp3[16:7],2h[4:1],,
{4}1-5[8:1],1/7-4[8:1],7/2,{16}1b/5,2,3,4,5,6,7,8,1,2,3,4,
{4}5/7-4[8:1],7/1-5[8:1],1/8,{16}7/3,6,5,4,3,2,1,8,7,6,5,4,
{4}3b/1b-6b[8:1],1b/8b-3b[8:1],8b/2b,{16}1b,3,1,4,1,5,1,6,1w5[4:5],7,1,8,
{4}1b,,,,,,
{4}8h[4:3],,,C,,,
{4}7h[4:3],,,C,,,
{4}E6,E5,E4,E3,E2,,
{4}8-5[2:1],,,E4,{16}2,1,{8}2,3,3,
{8}6/4,5,6,7/5,6,7,2bq6>3[8:3]/8b,,{12}Ch[4:1],,,,,,
{8}8/2,1,8,7/1,8,7,6b<2[4:1]/2b,,{16}2,3,4,5,6,7,8,1,
{4}2b-6[4:9]/E5h[8:1],,,,,,
{4}8b,,,,,,
{4}3h[2:1],8,6,2h[2:1],7,5,
{4}3h[2:1],8,6,2h[2:1],E7,E5,
{4}7h[2:1],4,2,6h[2:1],3,1,
{4}7h[2:1],4,2,6h[8:5],{8}E3,B2,B1,E1,
E
