&title=Rebellion Trigger
&artist=xi
&first=0.058
&des=Aterla
&lv_5=14.5
&des_5=Aterla
&inote_5=
(212){4},,,,,,,,5/7-4[8:1],
7/2-5[8:1],{2}2/5q7[4:5],
{4},,,,1-3[8:1],
1/4-8[8:1],{2}4/1-6[8:1],
{1}4p1[8:5]*q7[8:5],
{4}8-6[8:1],8-2[8:1],8-5[8:1],8-3[8:1]*-4[8:1],
8,8w4[8:1],8b,1-5[8:1],
{1}1b/5<4q5[2:7],
,Ch[4:7],
{4},,,,3/6,
{8}7,7,{16}6,5,{8}4,2,2,
{16}3,4,{8}3,{16}3,5,{8}3,{16}3,6,{8}3,7,7,
{16}6,5,{8}6,{16}6,4,{8}6,{16}6,3,{8}6,2,2,
{4}1b,8b,7b,6b,
{2}5bh[4:1]/8-5[8:1],{8}6/4,7,8/3,2,
{4}1-6[8:1]*-7[8:1],1-5[8:1],1-4[8:1]*-3[8:1],1,
{16}8xh[4:1],,,,,6,7,5,6xh[4:1],,,,,4,5,3,
{8}4xh[4:1],,,5,{2}6xh[4:1],
4bh[4:1]/1-4[8:1],{8}3/5,2,1/6,7,
{4}8-3[8:1]*-2[8:1],8-4[8:1],8-5[8:1]*-6[8:1],8,
{16}1xh[4:1],,,,,3,2,4,3xh[4:1],,,,,5,4,6,
{8}5xh[4:1],,,4,{2}3xh[4:1],
7-5[8:1]*-3[8:1],{8}4,4,5,5,
{4}6h[4:1],7h[4:1],8h[4:1],1,
{16}2-4[8:1],,,4,{4}2,{16}2-5[8:1],,,5,{4}2,
{16}2-6[8:1],,,6,{4}2,{16}2>4[8:1],,,4,{4}2,
{16}2>3-5[8:1],,,5,{4}2,{16}2q6[8:1],,,6,{4}2,
{16}2h[16:3],,,4,3h[16:3],,,5,4h[16:3],,,6,5h[16:3],,,7,
{2}6h[1:1],2h[2:1],
{16},1/5h,8/4h,7/3h,6/2h,5/1h,4/8h,3/7h,{2}6xh[4:1]/2xh[4:1],
{4}Cf,{16}3,4,{8}3,{16}3,5,{8}3,{16}3,6,{8}3,
{16}3,7,{8}3,{16}3,8,{8}3,{16}3,1,{8}3,{16}3,2,{8}3,
{4}Cf,{16}6,5,{8}6,{16}6,4,{8}6,{16}6,3,{8}6,
{16}6,2,{8}6,{16}6,1,{8}6,{16}6,8,{8}6,{16}6,7,{8}6,
{4}Cf,{16}3,4,{8}3,{16}3,1,{8}3,{16}3,8,{8}3,
{16}3,7,{8}3,{16}3,6,{8}3,{16}3,5,{8}3,{16}3,4,{8}3,
{4}Cf,{16}6,5,{8}6,{16}6,8,{8}6,{16}6,1,{8}6,
{16}6,2,{8}6,{16}6,3,{8}6,{16}6,4,{8}6,{16}6,5,{8}6,
{4}Cf,{8}3h[8:1],4h[8:1],2h[8:1],5h[8:1],3h[8:1],4h[8:1],
{4}2h[4:3],{16}5,6,7,8,1,3,4,5,{4}6,
Cf,{8}6h[8:1],5h[8:1],7h[8:1],4h[8:1],6h[8:1],5h[8:1],
{4}7h[4:3],{16}4,3,2,1,8,6,5,4,{4}3,
Cf,{8}3h[8:1],4h[8:1],2h[8:1],5h[8:1],3h[8:1],4h[8:1],
{4}2h[4:3],{16}5,6,7,8,1,3,4,5,{4}6,
7h[8:1]/1h[8:1],6h[8:1]/8h[8:1],7h[8:1]/5h[8:1],6h[8:1]/4h[8:1],
5h[8:1]/3h[8:1],{8}2,2,{16}8,1,8,1,8,1,8,1,
{32}8,7,6,5,{96},,,,,,,,,,,,{12}2,4,2,7,5,7,3,4,3,
6,5,6,4,4,4,5,5,5,3,2,4,
6,7,5,3,1,4,6,8,5,3,4,5,
{4}6h[1:1],3bx,3bx,3bx,
{8}3bx>4[4:13],{16},,,,,,,,,,,,4,4,
{2}4,{8}5,5,{4}5,
{8}6h[32:1],,,7h[32:1],,8h[32:1],{32},,,,,,,,1,
2,{16}3,,,,,,,{4}3,8,
{8}5/6bx<5[2:5],{16},,,,,,,,,,,,5,5,
{2}5,{4}4,4,
{8}6h[4:1],,,7,{2}8h[4:1],
{16}1,8,7,6,4,3,2,1,7,6,5,4,{12}2x,8x,1x,
{2}7xh[1:1],5xh[2:1],
{16},,B7,B6,B5,B4,{8}B3,{24},,,,,,{12}7,5,6,
{2}4h[1:1],2h[2:1],
{16},,B2,B3,B4,B5,{8}B6,{24},,,,,,{12}3,6,4,
{2}5h[2:1],{4}4b,{12}6,3,5,
{2}4h[2:1],{4}5b,{12}3,6,4,
{2}5h[2:1],4b,
{4}4/5,6/3,7/2,8/1,
{16}8,1,8,1,8,1,8,1,8,1,8,1,8,1,8,1,
8,7,6,5,4,3,2,1,8,7,6,5,4,3,2,1,
{1}8h[2:3],
{4},,,,8-4[2:1],
8h[2:1],{16},,,,,,,,7x,
5x,7x,5x,6,4,6,4,5,3,5,3,4,2,4,2,
{2}5bh[4:1]/1-5[8:1],{8}6/4,7,8/3,2,
{4}1-6[8:1]*-7[8:1],1-5[8:1],1-4[8:1]*-3[8:1],1,
8xh[4:1],{16}1b,2,3,4,{4}7xh[4:1],{16}2b,3,4,5,
{4}6xh[4:1],{16}5b,4,3,2,{2}5xh[4:1],
4bh[4:1]/1-4[8:1],{8}3/5,2,1/6,7,
{4}8-3[8:1]*-2[8:1],8-4[8:1],8-5[8:1]*-6[8:1],8,
1xh[4:1],{16}2b,3,4,5,{4}8xh[4:1],{16}6b,5,4,3,
{4}7xh[4:1],{16}1b,2,3,4,{2}6xh[4:1],
7-5[8:1]*-1[8:1],{8}3,3,4,4,
{4}5h[4:1],7h[4:1],1h[4:1],3,
{16}2-4[8:1],,,4,{4}2,{16}2-5[8:1],,,5,{4}2,
{16}2-6[8:1],,,6,{4}2,{16}2>4[8:1],,,4,{4}2,
{16}2>3-5[8:1],,,5,{4}2,{16}2q6[8:1],,,6,{4}2,
{16}2h[16:3],,,4,3h[16:3],,,5,4h[16:3],,,6,5h[16:3],,,7,
{2}6h[1:1],2h[2:1],
{16},1/5h,8/4h,7/3h,6/2h,5/1h,4/8h,3/7h,{2}6xh[4:1]/2xh[4:1],
4bh[4:1]/8-4[8:1],{8}3/5,2,1/6,7,
{4}8-3[8:1]*-2[8:1],8-4[8:1],8-5[8:1]*-6[8:1],8,
1xh[4:1],{16}8b,7,6,5,{4}2xh[4:1],{16}7b,6,5,4,
{4}3xh[4:1],{16}4b,5,6,7,{2}4xh[4:1],
5bh[4:1]/8-5[8:1],{8}6/4,7,8/3,2,
{4}1-6[8:1]*-7[8:1],1-5[8:1],1-4[8:1]*-3[8:1],1,
8xh[4:1],{16}7b,6,5,4,{4}1xh[4:1],{16}3b,4,5,6,
{4}2xh[4:1],{16}8b,7,6,5,{2}3xh[4:1],
2-4[8:1]*-8[8:1],{8}6,6,5,5,
{4}4h[4:1],2h[4:1],8h[4:1],6,
{16}7-5[8:1],,,5,{4}7,{16}7-4[8:1],,,4,{4}7,
{16}7-3[8:1],,,3,{4}7,{16}7<5[8:1],,,5,{4}7,
{16}7<6-4[8:1],,,4,{4}7,{16}7p3[8:1],,,3,{4}7,
{16}7h[16:3],,,5,6h[16:3],,,4,5h[16:3],,,3,4h[16:3],,,2,
{1}3bq6[2:3],
{4},,,,7h[8:1]/5h[8:1],
6h[8:1]/4h[8:1],5h[8:1]/3h[8:1],4h[8:1]/2h[8:1],
{12}1x,1x,1x,8x,8x,8x,7x,7x,7x,6x,6x,6x,
{16}5h[4:1],,,,,4,5,4,6,4,6,4,7,4,7,4,
8,1,2,3,1,2,3,4,8,7,6,5,7,6,5,4,
3h[4:1],,,,,4,3,4,2,4,2,4,1,4,1,4,
8,7,6,5,7,6,5,4,8,1,2,3,1,2,3,4,
{4}5h[8:1],{16}6,5,6,5,7,4,7,4,8,3,8,3,
{8}1,{16}2h[16:3],8h[16:3],,,,,7,3,7,3,7,3,7,3,
6,5,4,3,2,1,8,7,6/3,4,5,6,7,8,1,2,
{1}3/4bxz8-5b[2:1],
{8}1,1,1,1>5[8:1],1/5,{16}5/1,6,7,8,{8}1h[8:1],
{16},,,,2,6,2,6,2,6,2,6,2,6,2,6,
{4}2bx-4[8:1],1b-5[8:1],8b-6[8:1],8b-4[8:1],
8b,{16}3,5,3,5,3,5,3,5,3,5,3,5,
{4}3x>8[8:1],{16}3x/7x,6x,5x,4x,{4}3x<7[8:1],{16}3x/7x,8x,1x,2x,
{4}3bx-5[8:1],3bx-6[8:1],3bx-8[8:1],3bx-1[8:1],
3bx,{16}8/4-7b[8:1],7,6,5,{4}4,{16}8/4-8b[8:1],1,2,3,
{4}4,{16}1,5,1,5,1,5,1,5,1,5,1,5,
2,6,2,6,2,6,2,6,2,6,2,6,3,7,3,7,
3,7,3,7,4,8,4,8,4,8,4,8,5,1,5,1,
5,1,5,1,5,1,5,1,5,1,5,1,5,1,5bx,1bx,
{4}5bx,{32}A2,A3,A4,A5,A6,A7,A8,A1,E1,E2,E3,E4,E5,E6,E7,E8,,,,,{16}4bx/8bx,8bx/4bx,
{4}4bx/8bx,{32}A7,A6,A5,A4,A3,A2,A1,A8,E1,E8,E7,E6,E5,E4,E3,E2,,,,,{16}5bx/1bx,5bx/1bxp7b[16:65],
{1}1bx/5bxp3[1:4],
E
