&title=Trojan
&artist=litmus*
&first=0.492
&des=没素质
&clock_count=4
&wholebpm=128.000
&lv_5=13+
&des_5=
&inote_5=(128)
{1},
{4},,,
{16}2h[16:5]/4h[4:1],,,,,,,
3h[16:5]/5h[16:7],,,,,,,,,
46,,4,,6,5,,7h[16:5]/4h[16:5],,,,,,,4,,
6h[16:5]/5h[4:1],,,,,,,
6h[16:5]/4h[16:7],,,,,,,,,
53,,5,,3,4,,2h[16:5]/5h[16:5],,,,,,,5,,
3h[8:1],,4,,25,,3,3,4,,2,,25,,6,,
6h[8:1],,5,,74,,6,6,5,,7,,74,,3,,
3h[8:1],,4,,25,,2,2,4,,3,,25,,6,,
6h[8:1],,5,,74,,7,7,5,,6,5,7bx/4bx-1[4:3],,,,
{8}E7,,B6,,E7,,8-5[4:3],,E3,,B3,,E3,,1-4[4:3],,
E7,,B7,,E7,,5-8[4:3],,E3,,B2,,E3,,4>1[4:3],,
6,,5,,6,6,8<5[4:3],,3,,4,,3,3,1>4[2:1],,
7,,8,,7,7,5<8[2:1]/6,,1,1,2,2,3,4,
{16}7,5,6,,
3h[4:1]/5,,,,4h[4:1],,,,2,,,4,3,,5,,
6h[4:1]/4,,,,5h[4:1],,,,7,,,5,6,,4,,
3h[8:1]/5,,4,3,4h[8:1],,2,4,2,,5,3,5,,46,,
6h[8:1]/4,,5,6,5h[8:1],,7,5,7,,4,6,
2b/5b,,,,
34,,5,,6,5,6,5,7,,4,,3,4,3,4,2,,
17,,6,5,6,5,7,,28,,3,4,3,4,
{24}1,2,3,5,6,7,2,3,4,6,7,8,
3,4,5,7,8x,1x,5x,6x,7x,8x,1x,2x,
4x-8[8:1]/3x,,,,,,
{16}1hx[16:1],,1hx[16:1],,7-4b[8:1],2,8,2,7b,,,,
A5h[8:1]/D6h[8:1]/A3h[8:1]/D3h[8:1],,,,
6hx[8:1]/2,,4,,2hx[8:1],,4,,
6hx[8:1],,5,6,2hx[8:1],,4,,
6hx[8:1],,5,6,2hx[8:1],,4,,
6h[8:1]/5,,8,,
A6h[8:1]/D7h[8:1]/A4h[8:1]/D4h[8:1],,,,
3hx[8:1]/7,,5,,7hx[8:1],,5,6,
3hx[8:1],,5,,7hx[8:1],,5,6,
3hx[8:1],,5,,7hx[8:1],4,4,6,
3hx[8:1],,5,,
A3h[8:1]/D3h[8:1]/A5h[8:1]/D6h[8:1],,,,
6hx[8:1]/2,,4,,2hx[8:1],,4,3,
6hx[8:1],,4,,2hx[8:1],,4,3,
6hx[8:1],,4,,2hx[8:1],5,5,3,
6hx[8:1],,4,,
3-5[8:1],,2,,7,,8,,8,5,7-3[8:1],4,6,6,1,,
1,4,2-5[8:1],5,3,3,6b,,
7x>2[8:1],7x,7x,7x,5b,,,,
A5h[8:1]/D6h[8:1]/A3h[8:1]/D3h[8:1]/E6h[8:1]/E3h[8:1],,,,
7hx[8:1]/1,,2,4,1hx[8:1],,6,,7hx[8:1],3,3,5,
1hx[8:1],,5,4,7hx[8:1],2,2,5,1hx[8:1],4,5,6,
7xh[8:1]/8,,2,,
A4h[8:1]/D4h[8:1]/A6h[8:1]/D7h[8:1]/E4h[8:1]/E7h[8:1],,,,
2hx[8:1]/8,,7,5,8hx[8:1],,3,,2hx[8:1],5,5,3,
8hx[8:1],4,4,7,2hx[8:1],6,6,4,8hx[8:1],,3,5,
2h[8:1]/6,,4,,
A5h[8:1]/D6h[8:1]/A3h[8:1]/D3h[8:1]/E6h[8:1]/E3h[8:1],,,,
7hx[8:1],8,8,,1h[8:1],,5,3,7hx[8:1],2,2,6,
1hx[8:1],,5,4,7hx[8:1],,5,,1hx[8:1],6,6,,
7hx[8:1]/3,,5,,
6-4[8:1],,7,,2,,1,,1,4,2-6[8:1],5,3,3,8,,
8,5,7-4[8:1],4,6,6,3b,,
1x-5[8:1],1x,1x,1x,5b<4[1:3],,,,
{1},
{4},,
{1}Ch[1:2],,
{8},
{16}3,4,2/E5f,,,,
7b<1[4:1]/1b,,,,,,,,
8,,7,,26,,3b>5[2:1]/5b<3[2:1],,,,,,,,,,,,,,A4f/D5/D4,,,,
2b>8[4:1]/8b,,,,,,,,
1,,2,,73,,6b<4[2:1]/4b>6[2:1],,,,,,,,,,,,,,A5f/D5/D6,,,,
7b<1[4:1]/1b,,,,,,,,
8,,1,,26,,3b>5[2:1]/5b<3[2:1],,,,,,,,,,,,,,A4f/D5/D4,,,,
2b>8[4:1]/8b,,,,,,,,
1,,8,,73,,6b<4b[2:1]/4b>6b[2:1],,,,,,,,,,,,,,
A5f/D5/D6,,,,
57,,6,5,6,,3,,24,,3,4,3,,6,,57,,6,4,6,,3,,24,,3,5,3,,6,,
37,,6,5,6,,3,,26,,3,4,3,,6,,86,,7,1,7,,2,,35,,2,6,
4b/7b,,,,
56,,7,2,1,2,38,,43,,2,7,8,7,61,,
46,,7,2,1,2,38,,35,,2,7,8,7,61,,
{24}8,7,6,4,3,2,7,6,5,3,2,1,
6,5,4,2,1x,8x,4x,3x,2x,1x,8x,7x,
5x-1[8:1]/6x,,,,,,
{8}7hx[16:1],7hx[16:1],
{16}2-6[8:1],8,8,8,2b,,,,
A7h[8:1]/D8h[8:1]/E8h[8:1]/A5h[8:1]/D5h[8:1]/E5h[8:1],,,,
3x-1[12:1],,7,7,8x-4[12:1],,8,,
3x-1[12:1],3,3,,8x-4[12:1],,7,7,
3x-1[12:1],,2,,8x-4[12:1],,7,,1x,,5x,,
A2h[8:1]/D2h[8:1]/E2h[8:1]/A4h[8:1]/D5h[8:1]/E5h[8:1],,,,
6x-8[12:1],,2,2,1x-5[12:1],,1,,
6x-8[12:1],6,6,,1x-5[12:1],,2,2,
6x-8[12:1],,7,,1x-5[12:1],,2,2,8x,,4x,,
A7h[8:1]/D8h[8:1]/E8h[8:1]/A5h[8:1]/D5h[8:1]/E5h[8:1],,,,
3x-1[12:1],,7,,8x-4[12:1],8,8,8,
3x-1[12:1],,2,2,8x-4[12:1],,7,7,
3x-1[12:1],3,3,,8x-4[12:1],,7,7,1x,,5x,,
26,,4,,37,,5,,26,3,5,4,3,3,6,,37,6,4,5,6,6,4,,
1-5[12:1]/7-3[12:1],17,17,17,,,,,
A7h[8:1]/D8h[8:1]/E8h[8:1]/B7h[8:1]/A4h[8:1]/D4h[8:1]/E4h[8:1]/B4h[8:1],,,,
2x-5[12:1],,3,,6x-1[12:1],,7,,
2x-5[12:1],,3,3,6x-1[12:1],,7,,
2x-5[12:1],,3,3,6x-1[12:1],,7,,
3,,34,,
A2h[8:1]/D2h[8:1]/E2h[8:1]/B2h[8:1]/A5h[8:1]/D6h[8:1]/E6h[8:1]/B5h[8:1],,,,
7x-4[12:1],,6,6,3x-8[12:1],,2,,
7x-4[12:1],7,7,7,3x-8[12:1],3,3,3,
7x-4[12:1],6,6,6,3x-8[12:1],2,2,2,
6,,65,,
A7h[8:1]/D8h[8:1]/E8h[8:1]/B7h[8:1]/A4h[8:1]/D4h[8:1]/E4h[8:1]/B4h[8:1],,,,
2x-6[12:1],,3,,6x-2[12:1],7,7,7,
2x-6[12:1],,3,3,6x-2[12:1],,7,,
2x-6[12:1],3,3,,6x-2[12:1],,7,7,
3,,34,,
73,,5,,62,,4,,73,6,4,5,6,6,3,,62,3,5,4,3,3,5,,
8x-4[12:1]/2x-6[12:1],8x/2x,8x/2x,8x/2x,8bx/2bx<3[1:2],,,
