&title=DRE4M1N9
&artist=Lamanya
&first=0.11
&des_5=SeiKA in date 0419
&lv_5=14
&des=SeiKA in date 0419
&inote_5=(134)
{1},
{48},,,,,,,,,,,,,,,,,,,,,,,,,,,,,,,,,,,,,5-8-4-1[48:107],,4,,6,,,,,,,
||s3/4
{4}E2,,,E3,,,E4,,,E5,,,
{8}7h[4:1]/8,,E7,E6,E5/8-3[8:1],,
{8}8/2h[2:1],,,,B4,,
{16}7h[4:1],,,,E7,E6,E5,E4,{32}8-3[8:1],,,,,,,,
{8}8z4[2:1],,,3h[4:1],,,
{8}2<4[2:1],,7<4[4:1],D1,4>1[4:1],,
{8}A4/1<6[4:1],,6>3[4:1],D8,3,,
{16}1-6[8:1],,,,7,,,,5,6,4,5,
{16}3h[4:1],,,,2-6[8:1],,1,,8,,,,
{8}7>5[2:1],,2>5[4:1],D1,5<8[4:1],,
{8}A5/8>3[4:1],,3<6[4:1],D2,6,,
{16}8>6[8:3],,17,,2h[4:1],,,,,,E3,E4,
{16}7s3[4:1]/E5,,,,,,,,2,,,,
||s4/4
{16}3/5<1[4:1],,,,3,,4h[8:1],,,4h[8:1],,,3h[8:3]/E2,,,,
{16},,4,,2v4-1-5[8:3]/5,,,,8h[4:1],,,,,,7,,
{16}6/4>8[4:1],,,,6,,5h[8:1],,,5h[8:1],,,6h[8:3]/E8,,,,
{16},,5,,7-4-2[4:1]/4,,,,2-5-1[4:1],,,,,,,,
{16}2,,2h[4:1],,4,,4h[4:1],,6,,6h[4:1],,8,,8,,
{16}5,7,5,7,4,6,4,6,3,5,3,5,2,4,2,4,
{32}1,,8,,1,,8,,2h[8:1],,,,8,,1,,8,,1,,7h[8:1],,,,6-2[8:1],5,4,,5,4,3,,
{16}6-2-6-8-5-1[4:3],,,,,,,,,,,B3h[4:1],,,,B4,
{32},,,,,,E3,,,,1h[4:1]/E7,E6,E5h[16:3],,,,,,,2,3v4-2-8[8:5],4,5,,,,B8,,,,,,
{12}7h[12:1],,7h[12:1],,6h[12:1],,5,5h[6:1]/7v6-4[12:5],,,E2,,
{24}2h[12:1],,,,2h[12:1],,,,1h[12:1],,B4,B5,E6,,2-8[8:1],,,,,,4,,,,
{12}5,5h[12:1],E1,6h[12:1],E2,7h[12:1],E3,8h[12:1],E4,1h[12:1],{48}2b,3/8,4/7,5/6,,,,,
{24},,,,2,,,,1h[4:1]/4,,,,,,7v5<6-1[4:1],8,6,,,,7,,,,
{24}2-5>4-8[12:4],,3h[4:1],,,,,,,,,,2,,1h[6:1],,,,7,,B5/6<1[8:1],,,,
{24},,2,3,4,5,,,E2,E3,E4,E5,E6,E7,E8h[4:1],,,,,,2,1,3,,
{24}6h[6:1]/4,,B5,,4h[6:1],,B3,,5h[6:1],,B4,,3h[6:1],,E3,E2,E1,E8,E7,E6,E5/2,,,,
{24}1/3h[6:1],,,,C,,,,5b/6bh[4:1],,,,,,4,5,3,4,,,2v4-7-1[2:1]/B3,,1,,
{24}8,,7h[4:1],,,,,,,E7,E6,E5,E4,,,,,,,,{48}2>5[8:1],3,2,,,,,,
{24},,8,,7,,,,6,5,6,,7,,2-8v5[4:1],1,2,,3,,4h[4:1],,,,
{24},,{16},3,3,4,2,2,5,1,1,6,8,8,{24}5-1-3[4:1],6,7,8,
||s2/4
{24}1,2,3>5[2:3],,,,,,
||s4/4
{8}E4h[4:7],,,,B4,,,,,,,,B4,,,8,
{12}2-5p4[4:5]/B7h[4:7]/B8,,,,,,E7,,,,,,,,,,,,E7,,,3,2,4,
{8}5pp4[4:5]/E2h[4:7]/D2,,,,B1,,,,,,,,B1,,,,
{12}B3h[2:3]/B4/B5h[2:3],,,,,,B6,,,,,,B4,,,,,,B6,
,E1,,E3,,
{48}5/7h[2:1],,,,,,,,8,,,,,,,,1,,,,,,,,2h[2:1],E7,B6,B5,,,,,4,,,,,,,,4,,,,,,,,
{48}5h[2:1],,,,,,,,4,,,,,,,,4,,,,,,,,3h[4:1],D6,A6,D7,,,,,8,,,,,,,,C,,,,,,,,
{48}4/2h[2:1],,,,,,,,6,,,,,,,,6,,,,,,,,7h[2:1],E3,B3,B4,,,,,5,,,,,,,,5,,,,,,,,
{24}4h[2:1],,,,5,,,,3,,2,,1h[4:1],,,,D4,,E5,,C,,E3,,
{48}D4/7bh[4:1],,,,,,,,E6h[3:1],,,,,,,,,,,,,E8,E1,E2,E3,,,,,,,,B5,,,,B4,,,,B3,,,,,,,,
{48}E2/5h[4:1],,,,,,,,E8h[3:1],,,,,,,,,,,,,D6,D7,D8,D1,,,,,,,,2h[12:1],,,,1h[12:1],,,,3h[12:1],,,,6h[12:1],,,,
{48}5b<1[4:1],,,,,,,,4,,,,,,,,4,,,,,,,,E3,B3,,,,,,,E2,,,,E1,,,,E8,,,,E7,,,,
{48}4/E6,,,,3,,,,2,,,,1,,,,8,,,,7,,,,5/6,,4,,3,,2,,1,,8,,7,,6,,5,,4,,3,,2,,
{4}1-5[22.3333#24:1]/Ch[2:3],,B2,,B3,,B4,,
{16}5h[4:1]/7,,,,3-7<5-1[8:3],,,,A2/D2/3,,,,4h[4:1],,,,
{16}8h[4:1],,,,6-2-8[4:1],,,5,A4/E5/6,,,,,,7,,
{24}6h[4:1],,2,,1,,8h[4:1],,,,,,6,7,6,,5,,4h[4:1],,,,2,,
{12}1,3,3,8,2,2,E8,1h,E7,2h,E6,3h,
{16}4h[4:1]/2,,,,6-2>4-8[8:3],,,,A7/D8/6,,,,5h[4:1],,,,
{24}1h[4:1],,,,,,7h[4:1],,,,,,E5h[8:3]/B5h[8:3]/E6h[8:3],,,,,,,,,2,,,
{24}1-7-4<3[4:3],,,,,,,,,,,,B3,B4,,,,,,,,,,,
{24}4h[2:1],,,,,,,,,,,,5,,6,,7,,8/E6,E5,E4,E3,E2,,
{32}78,,,,,,6,,2,3,4,,,1,8,7,,,,,,7,,,1,2,3,,5,6,7,,
{32},,2,3,4,,6,7,8,,3,,1,,3,,C,,,,5,,4,,6,7,8,,3,4,5,,
{24}2-5[8:1],,1,,1,,28,,,E8,E7,E6,E5/3-7[8:1],,4,,4,,35,,,E5,E6,E7,
{24}E8/2h[4:1],,,,,,5,3,6,4,7,5,8,2,1,3,8,4,7,5,6,4,5,3,
{16}4bV62[4:1],,,,,,3-7-1[4:1],,,,,,2pp6[2:1],,,,
{24},,,,,,,,,,,,,,,,,,7,6,7,,,,
{16}8V26[4:1],,,,,,7-3-5[4:1],,,,,,6pp2[2:1],,,,
{16},,,,,,,,5>8[4:1],,5-8[8:1],,,,,,
{4}E1/E8/A8f,,,C,
{8}2-4[8:1]/E6h[2:3],,,B5,2-8[8:1],,B6,,
{8}2-4[8:1],,B5,,2h[4:1]/E5,,B2,,
{8}8-6[8:1]/E4h[2:3],,,B4,8-2[8:1],,B3,,
{8}8-6[8:1],B4,,,5<8[8:1]/E5,,C,,
{8}1h[4:1]/E3h[8:3],,,E4h[8:3],8h[4:1],,E3h[8:3],,7h[4:1],E4h[8:3],,,6h[4:1]/E3,,4h[4:1],,
{1}1qq5[2:3],,
{48}D3/D6,D4/D5,E4/E5,E3/E6,E2/E7,E1/E8,D1/D8,,,,,,,,,,,,,,,,,,,,,,,,,,,,,,,,,,,,,,,,E3h[24:61],,,,,,,,,,,,,,,,,,,,,,,,E7h[24:49],,,,,,,,,,,,,,,,,,,,,,,,,,,,,,,,,,,,,,,,,,,,,,,,,,,,,,,,,,,,,,,,,,,,,,,,,,,,,,,,,,,,,,,,,,,,,,,,,,C,,,,,,,,,,,,,,,,,,,,,,,,
E
