&title=紋
&artist=喜多村英梨
&first=0
&des=点点
&des_2=C3
&des_3=C3
&lv_5=13+
&des_5=C3
&inote_5=(132){4},,,,
(66){4}
6h[4:2],,5-8[4:1],,
5h[4:2],,4-1[4:1],,4h[4:2],,1qq3[4:1],,7h[4:2],,6>2[4:1],,
1>8[8:5],,1>4[8:1],,,
(150){4}
1b/5b,
(160)
||
4/4
{16}3qq2[4:1],,,,
4,,4,,
,,6,,
6h[4:1]/4,,,,
{16}5<1[4:1],,,,
4,,4,,
,,3,,
2,,,,
{16}3qq4[4:1],,,,
5,,5,,
,,6,,
6h[4:1]/5,,,,
{16}8>3[8:1],,,,
,,,,
5,4,6,3,
7,2,6,1,
{16}5qq2[8:3],,,,
6,,6,,
,,7,,
7h[4:1],,,,
{16}8<4[4:1],,,,
1,,1,,
,,2,,
3,,,,
{16}4qq7[8:3],,,,
6,,6,,
,,5,,
5h[4:1],,,,
{16}6<1[8:1],,,,
,,,,
7,8,6,1,
4,3,4,,
{16}6pp7[4:1],,,,
5,,5,,
,,3,,
3h[4:1]/5,,,,
{16}4>8[4:1],,,,
5,,5,,
,,6,,
7,,,,
{16}6pp5[4:1],,,,
4,,4,,
,,3,,
3h[4:1]/4,,,,
{16}1<6[8:1],,,,
,,,,
4,5,3,6,
2,7,3,8,
{16}3pp4[8:2],,,,
5,,,,
,,7,,
7h[4:1],,,,
{16}6pp7[8:2],,,,
8,,,,
,,2,,
2h[4:1],,,,
{16}1b>4[8:1],,,,
{24}5,6,7,{16}8b<5[8:1],,
,,{24}4,3,2,{16}1b,,
,,
{16}6,4,5,3,
1,2,8,3,
6,4,7,5,
8,1,7,2,
{16}5qq5[8:2],,,,
56,,,,
,,8,,
8h[8:2]/6,,,,
{16}1w5[8:1],,,,
1b,,,,
,,37,,
73,,,,
{16}4pp4[8:2],,,,
43,,,,
,,1,,
1h[8:2]/3,,,,
{16}8q5[8:1]*p3[8:1],,,,
8b,,,,
,,2b,1b,
2b>5[8:1],,,,
{32}5qq5[4:1],,,,{16},,
1,,1,,
8,,8,,
7<4[8:1],,7,,
{32}4pp4[4:1],,,,{16},,
8,,8,,
1,,1,,
2>5[8:1],,2,,
{32}6qq1[4:2],,,,
{16},,
8,,8,,
8,,8,,
8,,8,,
{16}73,,{24}4,5,3,{16}4,,{16}26,,{24}5,4,6,{16}5,,
4b/
8bqq3[16:6],,4bqq3[4:1],,
{16},,,,
,,,,
,,,,
{32}5,4,3,2,1,8,7,6,
{16}5-2[16:2],,,,
6h[16:3],,,5,
6<1[8:1],,1>4[16:2],,
6,,5h[4:1],,
{24},,,6,,,
4,,,25,,,
{16}6,5,7,4,
5,3,6,2,
{16}4h[8:1],,1,5,
3h[16:2],,8,4,
2>5[8:1],,5<8[8:1],,
21,,8,,
{16},,{24}1<6[8:1],,,
3,,,{16}12,,
,,1,5,
2,5,3,5,
{16}4>1[8:1],,6,,
4,,{24}7,6,5,
{16}4-8[16:2],,2,,
4,,{24}3,,,
{16}5>2[8:1],,7,,
5,,{24}8,7,6,
{16}5-1[16:2],,2,,
3,,{24}4,,,
{16}5b/7-4[8:1],,,,
2-6[8:1],,1,,
7-3[8:1],,1,,
7,,{24}8,,,
,,,{24}4/8qq1[4:1],5/1,62,{16}7b/3,,
,,
,,,,
{32}4,5,6,7,8,1,2,3,
{16}4-7[16:2],,,,
3h[16:3],,,4,
3>8[8:1],,8<5[16:2],,
3,,4h[4:1],,
{24},,,3,,,
5,,,74,,,
{16}3,4,2,5,
4,6,3,7,
{16}5h[8:1],,8,4,
6h[16:2],,1,5,
7<4[8:1],,4>1[8:1],,
78,,1,,
{16},,{24}8-3[8:1],,,
6,,,{16}87,,
,,8,4,
7,4,6,4,
{16}5<8[8:1],,3,,
5,,{24}2,3,4,
{16}5-1[16:2],,7,,
5,,{24}6,,,
{16}4<7[8:1],,2,,
4,,{24}1,2,3,
{16}4-8[16:2],,7,,
6,,{24}5,,,
{16}4b/2-5[8:1],,,,
7-3[8:1],,8,,
2-6[8:1],,8,,
2,,{24}1,,,
,,,{24}1/5pp4[8:3],48,37,{16}2b/6bpp3[4:1],,
,,
,,,,
{32},,,,,,,,
{16}3bqq2[8:1],,,,
{24}4,5,6,7b,,,
{16},,3,8,
4,8,5,8,
{16}6bpp7[8:1],,,,
{24}5,4,3,2b,,,
{16},,6,1,
5,1,4,1,
{32}3b,,8,,1,,2,,
5,,1,,8,,7,,
{32}3h,4h,5h,6h,2h,3h,4h,5h,
{16}1b,,,,
{32}8h[8:2]/7b,6,5,4,3,2,,,
,,,,1h[8:2]/2b,3,4,5,
6,7,,,,,,,
{16}8b/4b,,2bpp7[4:3]/6bpp3[4:3],,
{16},,,,
,,
&des_7=C3
