&title=Second Choice
&artist=M2U
&first=0.028
&des=LittleTom
&lv_5=14
&inote_5=(150)
{1},
{4}1h[2:1],4,8h[2:1],6,
{4}2h[2:1],4,7h[2:1],6,
{4}3h[2:1],1,6h[2:1],7,
{4}4h[2:1],1,5h[2:1],7,
{4}3>8[8:1],3h[4:1],5-1[8:1],5h[4:1],
{4}2>5[8:1],2h[4:1],7-3[8:1],7h[4:1],
{4}1-5[8:1],1h[4:1],6<1[8:1],6h[4:1],
{8}3,2/8,1/7,6/8,7/5,4/6,{16}3,5,3,5,
{8}2<4[2:1]/6<4[2:1],,{4},,,
{16}2,8,,1,7,,6,8,6,8,6-3[8:1],,1,,6,,
{16}2,2h[8:1],,5,3,,6,4,6,4,7-2[8:1],,5,,7,,
{16}4,4h[8:1],,8,3,,7,1,7,1,6-1[8:1],,2,,6,,
{16}3,3h[8:1],,6,4,,7,5,8w4[8:1],,4,,8,,,,
{16}7,1,,8,2,,3,1,3,1,3-6[8:1],,8,,3,,
{16}7,7h[8:1],,4,6,,3,5,3,5,2-7[8:1],,4,,2,,
{16}5,5h[8:1],,1,6,,2,8,2,8,3-8[8:1],,7,,3,,
{8}6,7/5,6/4,3/5,2/4,1/3,{16}2,8,2,8,
{16}3/7h[16:1],4,5,6,7,8,1,2,3/7,8,1,2,8,1,2,3,
{16}7/4h[16:1],6,5,4,3,2,1,8,2/7,1,8,7,1,8,7,6,
{16}2/5h[16:1],3,4,5,6,7,8,1,2/7,6,5,4,6,5,4,3,
{16}5/2h[16:1],4,3,2,1,8,7,6,5/8,1,2,3,1,2,3,4,
{16}2/5h[16:1],3,4,5,6,7,8,1,2/6h[16:1],3,4,5,6,7,8,1,
{16}2/7h[16:1],3,4,5,6,7,8,1,2/8h[16:1],3,4,5,6,7,8,1,
{16}2/7h[16:1],3,4,5,6,7,8,1,2/6h[16:1],3,4,5,6,7,8,1,
{16}2/5h[16:1],,4,6,4,6,3,7,3,7,2,8,2,8,1,1,
{4}1b>8[2:1],,,,
{8}1-3[8:1]/8,,7,7,1-4[8:1]/7h[4:1],,,6,
{8}1-3[8:1]/6,,5,5,1-5[8:1]/6h[4:1],,,7,
{8}8-6[8:1]/3,,2,2,8-5[8:1]/2h[4:1],,,1,
{8}8-6[8:1]/1,,2,2,8-4[8:1]/2h[4:1],,,3,
{8}8b/1b,,,8,1-4[8:1]/8h[4:1],,,7,
{8}1-3[8:1]/7,,6,6,1-5[8:1]/6h[4:1],,,7,
{8}8-6[8:1]/3,,2,2,8-5[8:1]/2h[4:1],,,1,
{8}8-4[8:1]/1,,2,2,8-5[8:1]/3h[4:1],,,2,
{4}1-5[8:1]/7-3[8:1],1/7,2-5[8:1]/6-2[8:1],2/6,
{4}1-5[8:1]/4-2[8:1],4<7[8:1]/1,8w4[8:1]/4,8b,
{4}8-4[8:1]/2-6[8:1],8/2,7-4[8:1]/3-7[8:1],7/3,
{4}8>3[8:1]/5<8[8:1],5-2[8:1]/8,1w5[8:1]/5,1b,
{16}8/2-4[8:1],,1,,2-6[8:1]/8,,7,7,2-4[8:1],,8,,1/2-6[8:1],,8,8,
{16}2-4[8:1],,7,,2,,6,6,5b/6b,,,8b/7b,,,2b/4b,,
{16}1-3[8:1],,6,6,1-7[8:1],,5,5,1-3[8:1],,4,4,1,,5,5,
{16}4,4,6,6,3,3,7,7,2,2,8,1,8/1,8/1,8/1,8/1,
{4}2h[4:3]/7>6[4:2],,,,
{16}1,8,,3,4,,6-1[8:1],5,6,5,6,,2b,,5/7,5,
{16}8,2,,5,4,,7-4[8:1],8,7,8,7,,1b,,4/6,4,
{16}7,5,,1,2,,3-8[8:1],4,3,4,3,,7b,,2/4,4,
{16}1,7,,3,4,,6-1[8:1],5,6,5,6,,2b,,4/6,4,
{16}8,1,,6,4,,5,3,5,3,5,3,4,4,4,4,
{16}4b,3,,8,1,,4,6,4,6,4,6,5,5,5,5,
{16}5b,6,,1,8,,3,4,3,4,2,5,1,6,8,7,
{16}8b,7,8,6,8,5,8,4,2b,5,2,6,2,7,2,8,
{16}2h[8:1],1,8,7,6/5,4,3,2,{24}8b,7,6,1,2,3,7,6,5,1,2,3,
{16}4h[8:1]/5,6,7,8,1/2,3,4,5,{24}1b,8,7,2,3,4,8,7,6,1,2,3,
{16}4h[8:1]/8,7,6,5,4/3,2,1,8,{24}6b,5,4,1,2,3,7,6,5,2,3,4,
{16}5h[8:1]/1,8,7,6,5/4,3,2,1,{24}7b,6,5,1,2,3,8,7,6,2,3,4,
{16}5/8,7,6,5,4/8h[4:0],3,2,1,4h[4:0]/8,7,6,5,4/8h[4:0],3,2,1,
{16}4h[4:0]/8,7,6,5,4/8h[4:0],3,2,1,4h[4:0]/8,7,6,5,4/8h[4:0],3,2,1,
{16}8b/4,7,6,5,8/4,7,6,5,8/4,1,2,3,8/4,1,2,3,
{16}4/8,7,6,5,3/4,2,1,8,{24}7b,6,5,8,1,2,6,5,4,1,2,3,
{4}8pp5[4:2]/4h[4:3],,,,
{8}3h[8:1],1,3h[8:1],5,3h[8:1],2,3h[8:1],4,
{8}6h[8:1],8,6h[8:1],4,6h[8:1],7,6h[8:1],5,
{8}2h[8:1],1,2h[8:1],3,2h[8:1],8,2h[8:1],4,
{8}7h[8:1],8,7h[8:1],6,7h[8:1],1,7h[8:1],5,
{4}8-4[8:1],1,2-6[8:1],3,
{4}4-8[8:1],5,6-2[8:1],7,
{4}8-4[8:1],1,2-6[8:1],3,
{4}4b-8[4:1]/5,,,{16}1,8,,2b/7b,
{1},
E
