&title=Hydra
&artist=James Landino & Akira Complex
&first=-1.425
&des=[USER BANNED]
&lv_5=14
&inote_5=(160){4},,,,{1}5b/A1/B1/B2/A2/D2/E2f/Ch[8:11],
{16},,,B6,,,{8}B2,,6h[8:1]/8h[8:1],{16},3h[8:1]/1h[8:1],,,{1}4b/A8/B8/B7/A7/D8/E8f/Ch[8:11],
{16},,,B3,,,{8}B7,,8h[8:1]/4h[8:1],{16},6h[8:1]/2h[8:1],,,{4}5v7[8:1]/1v3[8:1],
5b/1b<1[1:1],{16},,,,,,,,,,,B7,
,,{8}B3,,5h[8:1],{16},7h[8:1]/3h[8:1],,,{4}1qq7[32:5],
1,5qq3[32:5],5b,
{16}5h[8:1]/4bh[8:1],,,6bh[8:1]/3h[8:1],,,{8}7h[8:1]/2bh[8:1],{16},8bz4[12:1]/1s5[12:1],,,{4}8b/1b,
6/2bh[2:3],B6,,E4/B4,
,E8/B7/B8,{8},5h[8:1]/6h[8:1],{16},4V61[8:1]/7V51[8:1],,,{4}7/4>4[4:5],
B2,,B4/E4,
,B6/E6/B5,{8},B2/E2/B1/Ch[16:3],{16},B6/E6/B5,,,{4}D2/A2/A1/E2/D3/D1/E3/E1/B1/B2,
6h[8:1]/5h[8:1],{16}5,6,4,7,3-7[8:1],8,2,1,
{4}3b,{16}4,3,5,2,6,1,7,8,{24}6V84[16:3],1,6,1,6,1,
{16}6x,,,2V48[16:3],,,{8}2,{16}7<2[16:3],,,7,,,{8}1pp5pp1b[4:3],
,,,,,,,,8/7h[8:1],
8,{4}1/7h[8:1],{8}2/7h[8:1],2,{4}3/7h[8:1],
{16}4/7h[16:1],4,,5,{8}5/7h[8:1],6,7/8v3[8:1],1,{4}8/2,
{8}1/2h[8:1],1,{4}8/2h[8:1],{8}7/2h[8:1],7,{4}6/2h[8:1],
{16}5/2h[16:1],5,,4,{8}4/2h[8:1],3,2/1v6[8:1],8,{4}1/7,
7h[8:1]/B2/E3/B3,4/6h[8:1],{8}3/6h[8:1],3,{4}2/6h[8:1],
{16}1/6h[16:1],1,,8,{8}8/6h[8:1],7,6/5pp8[16:5],4,{4}5/3,
2-6[8:1],1/2,7-3[8:1],{16}8/7,{32},,,,1x,8x,
{16}7bx/2bx-5[16:1],,,6bx-1[16:1],,,{8}3bx-8[16:1],{16},7bx-4[16:1],,,{4}1b,
{8}8/1-5-1b[4:1],2,{4}1/3,{8}4-8-4b[4:1],3,{4}5/4,
{16}6,6h[8:1],,2,{8}2h[8:1],7,2-6-2b[4:1]/1-5[8:1],8/3,{4}1/2,
{8}8-4-8b[4:1],7,{4}8/6,{8}5-1-5b[4:1],6,{4}4/5,
{16}3,3h[8:1],,7,{8}7h[8:1],2,{16}8-4[8:1]/7-3-7b[4:1],6/1,{8}5/2,{4}8/7,
A1/D2/E1/E2/A2/B2/B1/D1,{32}8b/1b,7/2,6/3,5/4,,,,,{16}4,3,5,2,6-2[8:1],1,7,8,
{4}6b,{16}5,6,4,7,3,8,2,1,{24}3,8,3,8,3,8,
{2}3<6>3b[4:1],7>2<7b[4:1],
{16}3bx-8[16:1],,,7bx-4[16:1],,,{8}2bx-5[16:1],{16},6bx-1[16:1],,,{4}4b,
{8}2V84[16:3],2,7V51-5-7b[8:3],7,{4}3-7[8:1],3,
{8}8V61[16:3],8,{16}5-1-5b[4:1],4,{8}3,{2}3>8>3b[4:1],
{8}7V15[16:3],7,2V48-4-2b[8:3],2,{4}6-2[8:1],6,
{8}1V38[16:3],1,{16}4-8-4b[4:1],5,{8}6,{2}6<1<6b[4:1],
{4}Ch[8:1],{8}1/2,2,2/3,3,3/4,4,
5/4,5,5/6,6,{16}1,7,2,6,{24}3,5,3,5,3,5,
{4}4b-8[8:1],4/3,5b-1[8:1],{16}5/6,{32},,,,4x,5x,
{16}6bx/3bx-8[16:1],,,7bx-4[16:1],,,{8}2bx-5[16:1],{16},6bx-1[16:1],,,{4}4b,
{8}8x<1>8b[2:7],,,E1,,,{4}E5,
,,,,E8,
E7,E6,E5,
E4,E3,E2,E1,
{8}4>5<4b[2:7],,,E5,,,{4}E1,
,,,,E4,
E3,E2,E1,
E8,E7,E6,E5,
{8}6<3>6b[2:3],,,3,,,{4}5,
,,,,3>6<3b[2:3],
6,5,4,
3,4,5,6,
{8}2>7<2b[2:3],,,7,,,{4}1,
,,,,7<2>7b[2:3],
2,1,8,
7,8,1,2,
{16}7h[8:1]/5h[8:1],,,7h[8:1]/5h[8:1],,,{8}7/5,{16}2h[8:1]/4h[8:1],,,2h[8:1]/4h[8:1],,,{8}2/4,
{16}7h[8:1]/8h[8:1],,,7h[8:1]/8h[8:1],,,{8}8q3[4:1]/7qq4[4:1],{16},,,,,,,,2h[8:1]/8h[8:1],
,,2h[8:1]/8h[8:1],,,{8}2/8,{16}5h[8:1]/7h[8:1],,,5h[8:1]/7h[8:1],,,{8}5/7,
{16}1h[8:1]/2h[8:1],,,1h[8:1]/2h[8:1],,,{8}2q5[4:1]/1qq6[4:1],{16},,,,,,,,1,
2,3,4,8,7,6,5,4/3,2,1,8,5,6,7,8,
3,4,2,5,1,6,8,7,5,6,4,7,{24}3,8,3,8,3,8,
{16}3-7[8:1],,,4,,,{8}6-2[8:1],{16}5,,,3,,,{8}1<1b[8:5]*>1[8:5],
{48}A1,B1,C,B5,{12}A5,{4},,,{16},{48},{8}8/1x-6[8:1],
2,1/3,{16}4,5,{8}3qq4[4:1],4/2,{16}3/7,6,{8}5,
8x-3[8:1],7,8/6,{16}5,4,{8}6v1[8:1],5/7,{16}6/2,3,{8}4,
{16}5,8,4,7,{8}3h[8:1],{16}6,6h[8:1],,7,6,8,5,1,{8}4h[8:1],
{16}1,7,2,6,{8}3h[8:1],{16}5,5h[8:1],,4,5,3,6,2,{8}7h[8:1],
{32}8w4[8:1],1,2,3,4,5,6,7,{4}8,{16}6,5,6,2,4,3,5,2,
7,6,5/2,3,{8}4/8h[8:1],{16}1,1h[8:1],,8,1,7,2,6,3,5,
{8}2-6[8:1],{16}8,8,,4,{8}4,7-3[8:1],{16}1,1,,5,{8}5,
2,{16}1,8/2,,5,{8}6/4,7-4[8:1]/2-5[8:1],8/1,{4}7b/2b,
{8}1/8x-3[8:1],7,8/6,{16}5,4,{8}6pp5[4:1],5/7,{16}6/2,3,{8}4,
1x-6[8:1],2,1/3,{16}4,5,{8}3v8[8:1],4/2,{16}3/7,6,{8}5,
{16}4,1,5,2,{8}6h[8:1],{16}3,3h[8:1],,2,3,1,4,8,{8}5h[8:1],
{16}8,2,7,3,{8}6h[8:1],{16}4,4h[8:1],,5,4,6,3,7,{8}2h[8:1],
{32}1w5[8:1],8,7,6,5,4,3,2,{4}1,{16}8,8,1,1,7s3[16:3],7,2,2,
{4}7b,{16}1,1,8,8,2,2,7,7,{24}4,5,4,5,4,5,
{8}4-8[8:1],{16}2,2,,6,{8}6,5-1[8:1],{16}7,7,,3,{8}3,
2,{16}8,1/7,,4,{8}3/5,2-5[8:1]/7-4[8:1],1/8,{4}2b/7b,
{8}1/2h[8:1],1,{4}8/2h[8:1],{8}7/2h[8:1],7,{4}2h[8:1]/6h[4:1],
{16}2,2,5,5,{8}2h[8:1],3,2/1v6[8:1],8,{4}1/7,
{8}8/7h[8:1],8,{4}1/7h[8:1],{8}2/7h[8:1],2,{4}7h[8:1]/3h[4:1],
{16}7,7,4,4,{8}7h[8:1],6,7/8v3[8:1],1,{4}8/2,
2h[8:1]/B7/E7/B6,5/3h[8:1],{8}6/3h[8:1],6,{4}7/3h[8:1],
{8}2/8,4/6,1/5,3/7,4qq1[16:5],6,{4}4/8,
7-3[8:1],8/7,2-6[8:1],{16}1/2,{32},,,,8x,1x,
{16}2bx/7bx-4[16:1],,,3bx-8[16:1],,,{8}6bx-1[16:1],{16},2bx-5[16:1],,,{4}8b,
{8}6V48[16:3],6,3V15-1-3b[8:3],3,{4}7-3[8:1],7,
{8}4V25[16:3],4,{16}1-5-1b[4:1],8,{8}7,{2}7<4<7b[4:1],
{8}3V51[16:3],3,6V84-8-6b[8:3],6,{4}2-6[8:1],2,
{8}5V74[16:3],5,{16}8-4-8b[4:1],1,{8}2,{2}2>5>2b[4:1],
{4}Cf,{8}5/6,6,6/7,7,7/8,8,
1/8,1,1/2,2,{16}5,3,6,2,{24}7,1,7,1,7,1,
{4}8b-4[8:1],4/A8,1b-5[8:1],{16}5/A1,{32},,,,8x,1x,
{16}2bx/7bx-4[16:1],,,3bx-8[16:1],,,{8}6bx-1[16:1],{16},2bx-5[16:1],,,{4}8b,
{2}Ch[1:1],D7,
{1}D3,
E
