&title=バレリーナ.jpeg
&artist=A4。
&first=0.05
&des=^^;
&des_5=
&lv_5=14
&inote_5=(128)
{4},,,,,,,,,,,,,,,,,,
{8},,,E5,
{24}3xb/4xhb[8:1],,,2,,,3,,4h[8:1],,,2,,,6,5,,,7h[8:1],,,5,,,
6/5h[8:1],,,7,,,6,,5h[8:1],,,7,,,3,4,,,2h[8:1],,,4,,,
1xb/5xhb[8:1],,,2,,,3,,4h[8:1],,,2,,,6,5,,,7h[8:1],,,5,,,
6/5h[8:1],,,7,,,6,,6,4,,4h[8:1],,,5,3,,,4h[8:1],,,2,,,
6b/5xhb[8:1],,,8,,,6,,5h[8:1],,,7,,,3,4,,,2h[8:1],,,5,,,
3/4h[8:1],,,1,,,3,,4h[8:1],,,2,,,6,5,,,7h[8:1],,,5,,,
8xb/4xhb[8:1],,,7,,,6,,5h[8:1],,,7,,,3,4,,,2h[8:1],,,5,,,
3/4h[8:1],,,1,,,3,,4,2,,5,4,,7,5,,6,4-7[8:1],,,3,,,
{16}1x,,,,3,,5,,2,,,,2,,4,,3h[8:1],,,,3h[8:1],,5,,3<6[6:1],,4,,2,,,,
3,,,,3,,5,,2,,,,2,,4,,3h[8:1],,,,3h[8:1],,5,,2,,6,,{24}3,,6,4,,,
{16}8x,,,,6,,4,,7,,,,7,,5,,6h[8:1],,,,6h[8:1],,4,,6>3[6:1],,5,,7,,,,
6,,,,6,,4,,7,,,,7,,5,,6h[8:1],,,,5h[8:1],,,,4-8[8:1],,,,2pp7[2:1],,,,
{4}7x,6h[8:1],5-1[8:1],3qq7[2:1],7,6h[8:1],5-2[8:1]*-8[8:1],5,
1x<4[4:1],3,8>5[4:1],6,1<4[4:1],3,1-5b[8:1],7qq2[2:1],
2x,3h[8:1],4-8[8:1],6pp2[2:1],2,3h[8:1],4<7[8:1]*>1[8:1],4,
{8}8xh[8:1],2,4h[8:1],6,8h[8:1]/7,6,4h[8:1]/3,2,
71,28,{24}3,,3,6,,6,2,3,4,5,6,7,8x<5b[8:1],,,2,,,
{24}A8f/E8/E1/B8/4b-7[8:1],,,,,,2/4>1[8:1],,,3,,,4/8-3[8:1],,,7,,,8<5[8:1]/6,,,7,,,
8x>3[8:1]/2x,,,1,,,48,,,5,,,6,,6,4,,4,5,,5,2,,,
7b<4[8:1]/8,,,4-8[8:1],,,17,,,3,,,2>5[8:1],,,5-1[8:1],,,28,,,6,,,
8w4[8:1],,,62,,,8,,,,,,3x,,3,5,,5,4>1[8:1],,,6,,,
4b<7[8:1],,,5,,,8-5[8:1]/4,,,1,,,2/8>3[8:1],,,1,,,8/4-1[8:1],,,5,,,
4x-7[8:1]/6x,,,5,,,48,,,1,,,2,,2,4,,4,3,,3,5,,,
1b<6[8:1],,,2x,,,1/3,,,2,,,1p5[8:1],,,2x,,,1/3,,,2,,,
1v4[8:1],,8,2x,,,1/3,,,2,,,E1,,,E7/E3,,,E5h[4:1],,,,,,
1xb,,,6x,,,8/7h[8:1],,,3,,,1/2h[8:1],,,6,,,8/7,,5,3,,,
8/2h[8:1],,,5,,,1/7h[8:1],,,4,,,8/2,,3,5,,,7/1,,6,4,,4,
8xb,,,3,,,1/2h[8:1],,,6,,,8/7h[8:1],,,3,,,1/2,,4,6,,1,,,5,3,,8,
,,6,4,,4,8,,8,2,,2,4-7[8:1],,,1,,,3b,,,1,,,4/6,,,8,,,34,,,1,,,
4/6,,,8,,,5xh[8:1]/3x,,,1,,,5h[8:1]/6,,,8,,,4h[8:1]/3,,,1,,,7,4,6,3,,3,
5xb,,,7,,,64,,,2,,,5,,5,3,,3,6h[8:1],,,1,,,7,,7,4,,4,6,,6,3,,3,
5-1[8:1],,5,2,,,4x,,,,,,
{8}2xhb[4:1],,C,,6h[4:1],,E5,,3V52[4:1],4,C,,8h[4:1],C,E5,,
2h[4:1],,E5,,6h[4:1],,E5,,3h[4:1],,E5,,6pp4[8:3],E5,B3,,
3h[4:1],,B4,,6h[4:1],,B5,,2h[4:1],,B4,,6h[4:1],B5,A4,,
3V52[4:1],4,B5,,6V47[4:1],5,B4,,2,3,{24}6/B3,,6,4,,4,7x,6x,5x,2x,3x,4x,E5hf[4:1],,,,,,
1xb,,,6x,,,2,,4,3,,1,2,,5,4,,8,1,,6,5,,7,
8,,,3x/5x,,,7,,4,6,,8,7,,4,5,,1,8,,3,5,,2,
1x>4[8:1],,,8,,,6,,,7,,,8>3[8:1],,,7,,,5,,,6,,,
7>2[8:1],,,6,,,5,,,6pp8pp2[4:1],,,7<4b[8:1],,,,,,,,,,,,
6x,,6,3,,3,8,,8,2,,2,8,,5,7,,1,8,,2,4h[8:1],,,
2,,6,3,,5,1,,6,3,,5,2,,6,4h[8:1],,,7,,3,5,,,
7xb,6,5,3,2,1,7x,6,5,3,2,1,5x,6,7,1,2,3,5x,6,7,1,2,3h[24:7],
{32}8x,7,6,5,4,,2,1,8x,4,5,6,7,8,1,2,
{24}3x/6x,,,1x/8x,,,8x/1x>4b[8:1],,,,,,
{24}A1f/E2/E1/B1/5b<8[8:1],,,,,,1/5-2[8:1],,,3,,,
5-8[8:1]/1,8,7,6,,,1-6[8:1]/5,2,3,4,,,
1x-4[8:1]/5x,,,3,,,15,,,6,,,7,,2,5,,5,3,,3,7,,,
2b-5[8:1]/8,,,6-1[8:1]/4,,,82,,,6,,,3-8[8:1],4,5,7-4[8:1],,,3,,,7,,,
2<6[8:1],,,5/6>2b[8:1],,,28,,,,,,6,,6,4,,4,5<8[8:1],,,3,,,
5b>2[8:1],,,3,,,1/5-8[8:1],,,7,,,5-2[8:1]/1,,,3,,,1-4[8:1]/5,8,7,6,,,
1x-6[8:1]/5x,,,7,,,51,,,3,,,7,,7,5,,5,6,,6,2,,,
8b>3[8:1],,,7x,,,8/6,,,7,,,8q4[8:1],,,7x,,,8/6,,,7,,,
8v5[8:1],,1,7x,,,8/6,,,7,,,8,,,7x/1xh[8:1],,,{32}8,7,6,5,4,3,2,1,
{24}8xb-5[8:1]/4b,,,,,,8/4-7[8:1],,,2,,,8/4-1[8:1],1,2,3,,,8>3[8:1]/4,,,6,,,
4/8<5[8:1],,,6,,,8/4,,,3,,,2,,7,4,,4,6,,6,3,,,
2b/8-4[8:1],,,1,,,86,,,7,,,2/8-4b[8:1],7,6,5/1,,,86,,,7,,,
{32}8b/B2/B3/E3f,7x,6x,5x,,,,,2b/B7/B6/E7f,3x,4x,5x,,,,,
7xb/1xb,6x/2x,3xs7[6:1]/5xz1[6:1],4x,,,,,,,,,,,,,
{8}8x-4[8:1],7-5[12:1]/2,8,7,8-4b[8:1],6/1-3[12:1],8,1,
5-7[12:1],8-4[8:1]/4,5,8,8-4b[8:1],3-1[12:1]/7,8,3,
6h[8:1],8h[8:1],2h[8:1],4,5h[8:1]/6,7,1h[8:1]/2,3,
45,2xb/8xb,56,7xb/1xb,24,1x/8x,57,34,{32}2xb/7xb,1x/6x,8x/5x,4x,,,,,
{8},,1hb[2:1]/Chf[2:1],,,,
{32},2,3,4,5,6,7,8,1,2,3,4,5,6,7,8,1,2,3,4,5,6,7,8,
1,2,3,4,5,6,7,8,1x/5x,2x/6x,3x/7x,4x/8xh[32:29],5,6,7,,1,2,3,4,5,6,7,,
1,2,3,4,5,6,7,,1qq4<7V13b[16:12],2,3,4,5,6,7,,,,,,,,,,{4},,,
{24}6h[8:1]/4,,,1,,,3h[8:1]/5,,,8,,,5s1[6:1]/4z8[6:1],,,,,,,,,,,,
{16}2xh[8:1],,4,3,5,,7h[8:1],,5,6,4,,2h[8:1],,5,4,
{24}6,,2,8,,3,5,,2,1,,3,4<7[8:1],,2,1-5[8:1],,,,,,,,,
{16}7xh[8:1],,5,6,4,,2h[8:1],,4,3,5,,7h[8:1],,5,,
{24}4/3h[8:1],,,1,,,5/6h[8:1],,,8,,,4/2>7b[4:1],,,,,81,,,,,,,
{2}1xp8[8:13],,,,
{8},3-6[8:3]/7-2[8:11],,,,,,,,6-3[8:3],,,,,,E5,
