&title=Fin.ArcDeaR
&artist=MisoilePunch
&first=-0.16
&lv_5=14.8
&des_5=snd
&inote_5=
(225){4},{16},,,,,,,,,,,,1x,
2x,3x,4x,5x,6x,7x,8x,{8}1bx,5bx-1[8:1],,5bx,
,2,2,8,3,3,6,6,
{16}4,5,6,7,8,1,2,3,5b/4h,,,5b/4h,,,{8}4b/5h,
,3,4,6,5,4,3,3,
5,5,4,3,{16}2/4h,,,2/4h,,,{8}2/4h,
,B3,E5,B2,E6,{16}B1,C,{8}B5,{16}D8,E7,
{8}D6,B1,B2,B3,{16}6/C,,,6/C,,,{8}6/C,
{16},,5/3b,2,1,8,7,6,{2}5/8>6[8:5],
{8},,,,3,3,5,{16}3,2,
1,8,{8}7,5,5,{16}8,1,2,3,5,6,7,8,
{8}3-8[8:1],7-4[8:1],3,7,1,5<8[8:1],,5,
{4}1>4[8:1],{8}1/7,7,{4}7-4[8:1],7/1-5[8:1],
1/6-1[8:1],6,{16}4b,3,{8}2,{16}8b,7,{8}6,
1,5-1[8:1],2,5,,3,8-4[8:1],2,
8,2,2,2,{24}7,6,5,4,,,{8}1-4[16:1],1,
5-8[16:1],5,3-8[16:1],3,7-4[16:1],7,1-5[16:1],1,
{24}5,6,7,8,1,2,4-2-5<1[8:15],3,2,1,8,7,{2}Cf/6bx-1>5b[8:13],
{1},{4},,{16}E8,
B7,B6,E6,E4,B3,B2,E2,
E6,B5,B4,E4,E2,B1,B8,E8,B4,B3,B2,B1,B8,B7,B6,B5,
4x,3x,2x,1x,8x,7x,6x,5x,{2}8bx>4-6-8-2-4<8[8:49]`4x-6-8>4<8-2-4b[8:49],
{1},,,,,,{4}C,
C,{16}2,3,4,5,6,7,8,1,
{2}2v4[16:1]/6v3[16:1],{8}7b/5,6,{16}4,5,3,6,
2,7,1,8,{8}1-5[8:1],2,8-4[8:1],7,8,{16}3,5,
2,6,1,7,{8}8,8,{16}1/C,,,6/C,,,2,3,
{8}4,{16}6,5,{8}4,2,5-8[8:1],2-5[8:1],5,2,
{16},,4,3,2,8,7,6,{4}5/2h[8:1],{8}2h[8:1],4,
2h[8:1],3,2h[8:1],1,2h[8:1],8-4[8:1],,8/2,
,2,5,3,{16}4,3,{8}5,4-8[16:1],4,
7-4[16:1],7,1-5[8:1],1,6-2[8:1],6,4-1[16:1],4,
{16}8,7,{8}6,{16}2-6b[8:1],3,{8}4,{2}2/6>8[1:1],
{4},,,4h[4:1],
7h[4:1],3,{8}6h[8:5],5,,4,
,,6,{16}2,3,4,5,8,7,6,5,4,3,
8,1,2,3,6,7,8,1,{8}2/4h[8:1],,,3h[8:1],
8,{16}2,3,4,5,7,6,5,4,1,8,7,6,4,5,
6,7,{8}8h[8:1],{4}4h[4:1],{16},,6,7,8,1,3,4,
5,6,2,3,4,5,{24}8,7,6,5,4,3,7,{48},{16}6,5,4,1,2,
3,4,{24}6b,7,8,1,2,3,4,5,6,{4}1h[4:1]/7-4[8:1],{8}7,1,
{16},,3,4,5,6,7,8,{4}5h[4:1]/1>4[8:1],{8}1,5,
,6,7,4/8,{16}1,2,3,4,5/1,2,3,4,
5/7,6,5,4,3,2,{8}1,{16}4x-1[16:1],,,4x-7[16:1],,,{8}4x,
,3,5,4,{16}6,5,4,3,2,1,8,7,
6,5,4,3,2,1,8,7,{24}1/6,2,3,4,5,6,7,8,1,2,3,4,
5/8,7,6,5,4,3,2,1,8,7,6,5,{32}2b/4,3,4,5,6,7,8,1,2,3,4,5,6,7,8,1,
2,3,4,5,6,7,8,1,2,3,4,5,6,7,8,1,{2}2/Cf,
{4}1s5[8:1]*v4[8:1],1,{8}6,{16}4,3,2v5[8:1],,,6,
7-3[8:1],8,,,{4}4,{8}5-1[8:1],6,7/5,7<4[8:1],
{16},,8,1,2,3,,,{8}3,{16}5,6,7v4[8:1],,,3,
2-6[8:1],1,,,{4}5,{8}4-8[8:1],3,2/4,2>5[8:1],
{16},,1,8,7,6,,4bx,,5-7-1v6[16:5],,4,,5,,,,3,
,,,,{8}4,5b,4-2-8v3[16:5],5,4,
,6,{16},7x,3x,7x,3x,4,5,6,7,8,{8}1b,
{16}6,5,4,3,2,1,{8}4/8b<4[4:1],{16},,4/8,3,2,1,{8}8-3[8:1],
,8,5,6,3/7,{16}4,5,{8}4,7,
{16}4,5,{8}4,{4}8,{8}8/4,7/3,6/2,5/1,
{24},,,1/5,2/6,7/3,4/8,5,6,7,8,1,{8}2b,{16}5,4,{8}5,2,
{16}5,4,{8}5,{4}1,{8}5,6,7,{24}2,3,4,
7,6,5,1,2,3,6,7,8,4,3,2,{4}1b/Cf,{32}1b/6h[4:5],2,3,4,{16}5,{32}7,8,
1,2,3,4,{16}5,{32}7,8,1,2,3,4,{16}5,{32}7,8,1,2,3,4,{16}5,{32}7,8,1s5[8:3]*v4[8:3],2,3,4,{16}5,{32}7,8,
{2}1,{8}6,6,3,3,
5,5,4,4,{16}6`5h,,,6`4h,,,{8}6`3h,
{16}3`4h,,,3`5h,,,{8}3`6h,{2}7p3<1p4[2:5]`3bp7>5p8b[2:5],
{4},,,,,,,,,,3,
{16}E8,E7,{8}E6,
{4}2,{16}B8,C,{8}B5,1h[8:3],,,5h[8:3],
,,{4}2h[8:3],{8},6h[8:3],,,,,{4}7/3,
{8}6,6,{24}6/E2,B2,B3,E4,,,{8}5,
5,{24}5/E1,B1,B2,E3,,,{8}3x,{24}3x/E6,B6,B7,{8}E8,{24}E2,B2,B3,
{4}E4,{24}B8,B1,B2,B3,B4,B5,{4}2x/B6,{8}7x,{16}2,3,
4x,5,6,7,1x,8,7,6,5,4,2,1x,8,7,6,5,
7x/4bx,,,4bx/7h,,,{8}4bx/7h,{16}7bx,8x,1x,2,3,4,2,3,
4,5,1,8,7,6,5,4,{12}3,4,1,6,5,8,
3,4,2,6,5,7,{16}3b,2,1,8,7,6,5,4,
3bx/7b,8,1,2,3,4,5,6,3b,2,1,8,7,6,5,4,
3bx/7b,8,1,2,3,4,5,6,{24}7bx/1b,2,3,4,5,6,7,8,1,2,3,4,
8b/5bx,7,6,5,4,3,2,1,8,7,6,5,{32}4bx/1b,2,3,4,5,6,7,8,1,2,3,4,5,6,7,8,
1bx/6b,5,4,3,2,1,8,7,6,5,4,3,2,1,8,7,{2}6/Cf,
,Cfh[4:1],
{16}5/4h,,,5/4h,,,{8}4h/5-1[8:1],{16},,4x,3x,{4}2bx/Cf,
{16}2-5[8:1],1,{8}3,{4}1/2,{16}6,,,6/3xh,,,{8}6/2xh,
7,1-5[8:1],7,1,8-4[8:1],1-3-5-7-1>7[8:9],8,1,
,,,,,,,,,1-4[8:1],
8,1,7-4[8:1],8,7,{16}2,1,
8,7,6,5,{12}7,4,6,3,5,2,6,4,7,
{24},,,{8}4,5,6,{16}3,4,{8}1,7,{16}3,4,
{8}1,7,2,6,3/7,8/4,5/1,6/2,
{24},,,2/6,5/1,4/8,3,2,1,8,{48},,,,{16}6,5,6,4,{8}5,{16}3,4,
3,5,{8}4,,3h[8:1],5,3h[8:1],6,{16}4,5,
4,5,3,6,3,6,4,5,{4}3/Cf,{32}4b,5,6,7,8,1,2,3,
4,5,6,7,8,1,2,3,{8}4,5xh[8:1],4xh[8:1],6xh[8:1],3xh[8:1],7xh[8:1],
2xh[8:1],8,8,8/2-5[16:1],2,6-1[16:1],6,3-7[16:1],
3,3,5-1[8:1],5,{16}5,,,4h,,,{8}4h,
{16}2h,,,6h,,,{8}4h,5h,1bx-5[8:1],7,1bx-3[16:1],
8,1bx-5[8:1],8,1bx>4[8:1],7,1bxv4[8:1],6,1bx>5[8:1],
6x,1bx,7,7,8bx-4[8:1],2,8bx-6[16:1],1,
8bx-4[8:1],1,8bx<5[8:1],2,8bxv5[8:1],3,8bx<4[8:1],3x,
8bx,2,2,5,{16}3,4,3,4,2,5,2,5,
1,6,1,6,8,7,8,7,5,6,5,6,4,7,4,7,
3,8,3,8,2,1,2,1,2,1,3,4,5,6,7,8,
1,2,6,5,4,3,2,1,8x,2bx,8x,3bx,8x,4bx,8x,5bx,
8x,6bx,{8}8x,B8,C,
E
