&title=わかさぎ姫けた寿司ネタ100本勝負
&artist=IOSYS
&first=0
&des=真正的第100个寿司是谁呢?
&clock_count=4
&lv_5=13+
&des_5=真正的第100个寿司是谁呢?
&inote_5=(152){1},,
{8}3h[8:1]/5,,6h[8:1],,
{8}2h[24:6],,7,,8<1[8:4]*pp6[8:4],,,,
{8},,,,5<1pp6[4:3],,,,,,,,3h[8:3],,,5,
{8}5h[4:1],,4b,,6h[8:1]/4,,3h[8:1],,
{8}7h[24:6],,2,,1>8[8:4]*qq3[8:4],,,,
{8},,,,4h[8:4],,,,
{8}5h[2:1],,1,,2h[8:3],,,7,
{8},1,2q5[4:3]/5b,3,C,,,,,,,,
(192)
{8}4,,4,,3/6,2,1b/8b,,
{8}2-5[8:1],,7,,2-5[8:1],,7,,
{8}2-5[8:1],2,,7,2-5[8:1],,7,,
{8}7-4[8:1],,2,,7-4[8:1],,2,,
{8}7-4[8:1],7,1-5[8:1],,7-3[8:1]/1,,7b,,
{8}2-5[8:1],,7,,2-5[8:1],2,7,,
{8}2-5[8:1],,7,,2-5[8:1],2,7,,
{8}7-4[8:1],,2,1,7-4[8:1],,2,1,
{8}8-3[8:1],,7-4[8:1],,1v6[8:1],,1b/5bx,,
{8}5xh[4:1],,3,,5,5,3,,
{8}3h[4:1],,6,,4,4,6,,
{8}7,5h[4:1],B6,,4,5h[4:1],B4,,
{8}7,5h[4:1],B6,,4-1[8:1]*v7[8:1],,,,
{8}6xh[4:1],,3,,5,5,3,,
{8}3h[4:1],,6,,3,3,5,,
{8}3,6h[4:1],E4,,7,4h[4:1],E6,,
{8}3h[8:3],5,5,5,5,4,6,3,
{8}7-4[8:1],,2,,7-4[8:1]/2,7,2,,
{8}7-4[8:1],7,2-5[8:1],2,,7,7x/3x,,
{8}2-5[8:1],,7,,2-5[8:1]/7,2,7-4[8:1],,
{8}2-5[8:1],1,7-4[8:1],8,2,2b,2b,,
{8}5xh[4:1],,3,,5,5,3,,
{8}3h[4:1],,6,,4,4,6,,
{8}2h[4:1],,7-4[8:1],1,7x,,2q6[8:1],6,
{8}2x,,8p4[8:1],4,3x<6[8:1],,1x,,
{8}2h[4:1],,7,,1,1,7,,
{8}7h[4:1],,2,,8,8,2,,
{8}2h[4:1],,7-4[8:1],7,1,,2-5[8:1],2,
{8}6-2[8:1],6,4-8b[8:1],4,1x,7x,5x,3x,
{16}1x-4[8:1],,,,8,,,7,7-4[8:1],,1,,1,,,,
{16}8-4[8:1],,8,,1,,1h[16:1],,7-3[8:1],,1-5[8:1],,7,,,,
{16}6h[16:3],,4-1[8:1],,4,,7,,8p3[8:1],,8,,1q6[6:1],,1,,
{16}1xp4<6[4:1],,,,1x,,,,3xp2b[4:1],,,,3b,,,,
{8}8x<3[8:3],,,3q5[8:3],,2,2,,
{8}2x>7[8:3],,,7p4[8:3],,8,8,,
{8}7xV14[8:3],,,4z8[8:3],,3,3,,
{8}4xV27[8:3],,,7s3[8:3],,5,5,,
{8}7x,6q4[4:1],5,4p6[4:1],,5,5,,
{8}2x,3p5[4:1],4,5q3[4:1],,4,4,,
{8}7x,5q2[4:1],4,2q7[4:1],,4,4,,
{8}2x,4p7[4:1],5,7p2[4:1],,5,5<8[4:1],,
{4}8x>3[4:1],3x<6[4:1],6x,1bx,
{8}2/8,3,4-8[8:1]/6,6,4,,4-8[8:1],,
{8}2,,4-8[8:1],4,6-2b[8:1],,6,,
{8}1-5[8:1]*,,1/6,,1-5[8:1],1,3,3,
{8}1-5[8:1],8-6[8:1],1,8,2h[8:1],A7/B7,B4/B3,,
{8}7/1,6,5-1[8:1]/3,3,5,,5-1[8:1],,
{8}7,,5-1[8:1],5,3-7b[8:1],,3,,
{8}8-4[8:1],,2/8,,8-4[8:1],8,6,,
{8}8-4[8:1],8,1-3[8:1],1,7b,5b,1b,,
{8}2/8,3,4-8[8:1]/6,6,4,,4-8[8:1],,
{8}2,,4-8[8:1],4,6-2b[8:1],,6,,
{8}8-4[8:1],8,6,6,8-4[8:1],8,2,2,
{8}8-4[8:1],7-5[8:1],8,7,1h[8:1],A6/B6,B3/B2,,
{8}7/1,6,5-1[8:1]/3,3,5,,5-1[12:1],5,
{8}7x-3b[12:1],,1x-5[12:1],,3x-7b[12:1],,5x,,
{8}5-1[8:1],,8,,5-1[8:1],5,8-4[8:1],,
{8}8b>3[8:1]*<5[8:1],,8bw4[8:1],,8b,,B6/B7/Cf/B2/B3,,
{8}1-5[8:1]/8h[4:1],,,,2-4[8:1],2,8,,
{8}1-5[8:1],1,7h[4:1],,2-4[8:1],2,8x,,
{8}7-5[8:1],7,3h[8:1],,8-4[8:1],8,2h[8:1],,
{8}1-5[8:1],,1/8,,7-4[8:1],,3bx/7bx,,
{8}2-5[8:1],,2/7h[4:1],,1-6[8:1],1,7,,
{8}2-5[8:1],2,7-4[8:1],7,1-6[8:1],1,5,,
{8}8xh[4:1],5>2[8:1],,,1xh[4:1],8p3[8:1],,,
{8}2xp6q3[8:3],,,,,4b,4b,,
{8}5xh[4:1]/4,,3,,5,5,3,,
{8}3h[4:1]/5,,6,,4,4,6h[4:1],,
{8}3h[4:1],,7-4[8:1],,4-8[8:1],3,2h[4:1],,
{8}7,6/3,7,6/4,5-1[8:1],4b,4b/5bx,,
{8}2h[4:1]/8x,,7,,1,1,7,,
{8}7h[4:1]/1,,2,,8,8,2h[4:1],,
{8}7p4[8:7],,,,,,2-5[8:1],,
{8},,,,3x-8b[8:1]/6x-1b[8:1],,,,
{8}2-5[8:1]/7,,7x,,2-5[8:1],2,6x,,
{8}2-5[8:1],5-1[8:1],6x,6h[4:1],,8,1/5,,
{8}5-1[8:1]/2,,2xh[4:1],,5-1[8:1],5,3,,
{8}4h[8:1],7,7,5-1[8:1],8x-4[8:1],5b,8b,,
{8}7x-4[8:1]/2x,,2,,7x-4[8:1],7,3,,
{8}7x-4[8:1],4-8[8:1],3,3h[4:1],,1,8x/4x,,
{8}5-2[8:1]/7,,7h[4:1],,5-2[8:1],4,6,,
{8}3h[8:1],5h[8:1],4,6-1[8:1],5x-2[8:1],6b,5b,,
{8}4-2[8:1]/6-8[8:1],,6x/4x,,3/6-8[8:1],3,6,,
{8}1/6-1[8:1],2,3/6,4,6-1[8:1]/5,4,6x/3x,,
{8}5/3-1[8:1],,3/5,,6/3-1[8:1],6,3x,7,
{8}8/3-8[8:1],7,6/3,,7x-4[8:1]/3x-8[8:1],,7b/3b,,
{16}2-5[8:1],1,2,1,2x,,,,7-4[8:1],8,7,8,7x,,,,
{16}2,1,2,1,3,4,3,4,1>4[8:1],7,1,7,1x,,,,
{16}6,5,6,5,7,3,7,3,5,2,5,2,7,4,7,4,
{32}3x/7x,6,5,4,,,,,2x/6x,3,4,5,,,,,8xp7b[5:1]/2x,7,6,5,,,,,8bx,,,,,,,,
{16}5x>6b[8:4],,,,,,,,,,,,1b,,,,
{8}2/7,3,4/1<6[8:1],4,1,,2x<6[6:1],,
{8}2v4b[6:1]/6<2[6:1],,2x<5[4:1],,,,4,3,
{8}2>5[8:1],2,7x,7,2>6[6:1],2,8x,8,
{8}2>7[4:1],2,1x,1,1h[8:1],E5/B5,E1/B8,,
{8}7/2,6,5/8>3[8:1],5,8,,7x>3[6:1],,
{8}7/3V16[6:1],,6x<3[4:1],5v3b[8:1],,,,,
{8}7<4[8:1],7,2x,2,7<3[6:1],7,1x,1,
{8}7<2[4:1],7,8x-4b[8:1],8,8b,5b,3b/7b,,
{8}3/6,5,4xpp5[6:1]/1,4,2,,3xpp4[6:1],,
{8}1,,3xpp1[8:3],6>4b[8:1],7,,,,
{8}2qq8[8:1],2,7x,7,2qq1[6:1],2,6x,6,
{8}2qq4[8:3],2,5x,5,5h[8:1],B6/A6,A3/B3,,
{8}6/3,4,5xqq4[6:1]/8,5,7,,6xqq5[6:1],6,
{8}2xqq1[6:1],,2x>6b[6:1],,7xpp8[6:1],,7xp4b[8:3],,
{8}3h[8:3],,,,3,,2-6[8:1],,
{8}2b/8>3[8:1]*<5[8:1],,8bw4[8:1],,8b,,Cf/B2/B3/B6/B7,,
{8}8x-6[8:1]/1x,,8x-2[8:1]/3x-5v4-6[8:3],,8x-6[8:1],,8x-2[8:1],,
{8}8x-6[8:1],,8x-2[8:1]/3xv4<6[8:3],,8x-6[8:1],,8x-2[8:1],,
{8}8x-6[8:1]/5xp3[8:3],,8x-2[8:1],,8x-6[8:1],,8x-2[8:1],,
{8}5x/8x,,5x,8x-2[8:1],5x-2[8:1],,,,
{8}3/8-4[8:1],,2,1,8-3[8:1]*-5[8:1],,8,,
{8}2/8-4[8:1],,2,1,8v3[8:1]*v5[8:1],,8,,
{8}2/8-4[8:1],,2,1,8bxw4[8:1],8bx,,,
{8}7,6,7>2<7b[8:3]/2,5,7/3,4,4,,
{8}2/5-1[8:1],,3,4,5-2[8:1]*-8[8:1],,5,,
{8}3/5-1[8:1],,3,4,5v2[8:1]*v8[8:1],,5,,
{8}3/5-1[8:1],,3,4,5xw1[8:1],,5x,,
{8}7/3,6,5/2,6/3-7[8:1],6-2[8:1],,,,
{8}4-8[8:1],,6,5,4-8[8:1],,2,3,
{8}4x-8[8:1]/7x-5[8:1],,7x-3[8:1]/4x,,7x-1[8:1]/2x-5[8:1],,2x-6[8:1]/7x,,
{8}8,,2-6[8:1],,4,3,2/1h[4:1],,
{24}2xqq1[6:1],3x,4x,,,,2xq5b[8:3],3x,4x,,,,2x,3x,4x,,,,1b,,,,,,
{8}6h[2:1],,,,3h[2:1],,,,5,,7/1-5b[8:1],,5q5qq5[19#4:1],,,,
E
&lv_6=14
&des_6=好想吃寿司郎啊
&inote_6=(152)
{4},,,,,,,,3h[4:3]/5pp4[4:2],,,,
{8}6h[4:3]/2,,5,5,,4,4-1[8:1],,7h[4:1],,,,3h[4:1]/5h[4:1],,,,6h[4:2]/4,,,2,2-4[8:1],,,,
{8}3h[4:3]/7q1[4:2],,,,,,,,2h[4:3]/8,,5,5,,7,7,,1h[4:1]/8h[4:1],,,,2h[4:1]/7h[4:1],,,,
{4}6bq8[4:6]/3bp1[4:6],,,,,,,,
(192)
{32}1b,2,3,4,5,6,7,8,1b,2,3,4,5,6,7,8,1b,2,3,4,5,6,7,8,
{8}1b/5b,,7b-5[8:1]/4b-8[8:1],,,,1-5[8:1],6,,,7b-4[8:1],4-8[8:1],,,2-5[8:1]*-6[8:1],2,,,
{8}8b<5[8:1],,3,,1-4[8:1]*-6[8:1],,,,3b/7b,,2v5[8:1]/8v5[8:1],,,,64,,
{8}7bv1[8:1]/3bpp5[8:1],,,,8-4[8:1],3,,,2b-5[8:1],5-1[8:1],,,7-3[8:1]*-4[8:1],7,,,
{8}5bpp6[64:15],,4<2[8:3],3,2,,3,,4b-2[8:1]*-6[8:1],,4bv1[8:1]*v7[8:1],,4b,,,,
{8}28,,6,57,,4,5/4h[4:1],,8,5,6,5,7-4[8:1],,2-8[8:1],,5h[4:1],,3,7,7v1[4:1],,,,2-4[8:1],,,,5-3[8:1]/8-6[8:1],,,,
{8}2,7,4,5,1-5[8:1],,7<3[16:4],,2h[4:1],,,,28,,46,,3/7qq5[8:1],,,1,1p8[8:3],,,,,
{8}7h[8:1],5h[8:1],6h[8:1],3h[8:1],4h[8:1],2h[8:1],5,
{8}8b>3[8:1],,8b/7b,,6b-1[8:1],5b,6b,,4b-8[8:1],7b-5[8:1],4b,7b,1-5[8:1],6b,1b,,4b/7b,6,2b/5b,3,4b/7b<4[8:1],8b,1b-5[8:1]/7b,2,1b>4[8:1]*<6[8:1]/8b,,1bw5[8:1],,1b,,37,,
{8}18,,7,3/4h[8:1],,2,5/6h[4:1],,1,6,5,7,1-5[8:1],,6<4[8:3],,3,,,1,1-5[8:1],,8<2[4:2],,3h[2:1],,,,,,18,,
{8}6h[8:1]/5,,3,7,5-1[8:1],,6,,8,3,4,2,8-4[8:1],,3>5[8:3],,4h[4:1],,,4,4-8[8:1],,1>7[4:2],,8h[4:2],,,,,,18,,
{8}2b-5[8:1]/6b-1[8:1],,26,,8-4[8:1],3,8,,1b-5[8:1],5-2[8:1],1,,7-3[8:1]*-4[8:1],6,7,,2b-5[8:1],1,6-4[8:1],7,3,2,18,7,5b-3[8:1]/6b-8[8:1],,6b-2[8:1]/5b-1[8:1],,5b/6b,,37,,
{8}4h[4:1]/5b,,6h[8:1],3h[8:3],7h[8:1],,8h[8:1],,2h[4:1]/5b,,6h[8:1],3h[8:3],7h[8:1],,8h[8:1],,
{8}4h[4:1]/5b,,6h[8:1],3h[8:3],7h[8:1],,8h[8:1],,2h[4:1]/5b,,6h[8:1],3h[8:3],7h[8:1],,8h[8:1],,
{8}2b,5h[8:1],4h[8:1],6h[8:1],3h[8:1],7h[8:1],2h[8:1],8h[8:1],1b,5h[8:1],4h[8:1],6h[8:1],3h[8:1],7h[8:1],2h[8:1],8h[8:1],
{16}1b,5,1,5,4,6,4,6,3,7,3,7,2,8,2,8,1b,5,1,5,4,6,4,6,3,7,3,7,2,8,2,8,
{8}1b-5[8:1],,1b/8b,,7b-2[8:1]/3b-6[8:1],,3b/7b,,
{8}1bv6[8:1],6V82[4:1],1,,3-5[8:1],,1<6[8:1],,41,,3,4V25[16:3],,5,6-8[8:1],,1b-5[8:1],2,3,,46,7,35,2,18,6,5/7h[4:1],4-2[8:1],3-5[8:1],,,,
{8}1b-4[8:1],4V28[4:1],1,,7-5[8:1],,2-6[8:1],,28,,1,7-3[8:1],,8,1<6[8:1],,5b-2[8:1]*-8[8:1],,,,37,5,2/6-4[8:1],,1-5[8:1],,,,7-4[8:1]/3-1[8:1],,,,
{8}8b-3[8:1],3V52[4:1],8,,7-4[8:1],,8>3[8:1],,85,,6,5V71[16:3],,3,2>4[8:1],,1b-5[8:1],1,8-4[8:1],8,7<5[8:1],7,1,1,24,3,47,6-4[8:1],5-7[8:1],,,,
{8}8b>3[8:1],,8/4-8[8:1]*<7[8:1],,,,1>4[8:1],,5-2[8:1]/1,,8<5[8:1],,8/4-7[8:1],,1-5[8:1],,1b/8b,,4/6-4[8:1],,36,2,1-3[8:1]/8-6[8:1],,1b-5[8:1]/8b-4[8:1],,1b>4[8:1]/8b<5[8:1],,1b/8b,,36,,
{8}8b-4[8:1]/2h[4:1],,,,5-7[8:1]/3h[4:1],,,,8b-4[8:1]/1h[8:1],,2h[8:1],,3-1[8:1]/5-7[8:1],,,,8b-4[8:1]/2h[8:1],,3h[8:1],,5-7[8:1]/4h[8:1],,3h[8:1],,8b-4[8:1]/2h[8:1],,3h[8:1],,5-7[8:1]/2-4[8:1],,,,
{8}8b-4[8:1]/3b-1[8:1],,,,2-4[8:1]/6h[4:1],,,,5b-1[8:1]/7h[8:1],,8h[8:1],,6h[4:1]/2-4[8:1],,,,7b-5[8:1]/4h[8:1],,2h[8:1],,7-3[8:1]/4h[8:1],,2h[8:1],,8b<5[8:1]*>3[8:1]/1b,2b/7b,,,4b-8[8:1],,3b/4b,,
{8}7b/1b,,6,57,,4,3/5h[4:1],,2,3,4qq5[8:3],5,6h[4:1],,,,7-4[8:1],,17,,7-4[8:1],8,71,,7-4[8:1],8,71,2,7-4[8:1],8,17,,
{8}2,6,4,5,3-6[8:1],,7pp2[4:2],,4h[4:1],,,4,4-1[8:1]*-7[8:1],,,,2bpp3[4:2],,,,,,,6,5,7h[8:1],,,2b-6[8:1]/8b-4[8:1],,,,
{8}3b-8[8:1]/7b-4[8:1],,3b/7b,,2b/1b,3b/8b,4b/7b,,1b/8b,2b/7b,3b/6b,4b/5b,36,5b/7b,1b/8b,,2b/4b,3,4b/8b,6,5b/7b,4b/6b,3b/5b,,2b/4b,2b/4b,3b/5b,4b/6b,5b-2[8:1]/7b-4[8:1],,,,
{8}1b-4[8:1]/6b-3[8:1],,1b/6b,,2b/8b,3b/7b,4b/6b,,3b/4b,2b/5b,1b/6b,7b/8b,16,4b/5b,3b/7b,,2b/8b,6,4b/7b,3,1b/5b,6b,2b/8b,37,8b-4[8:1],7b,1bw5[8:1]/8b,2b,1b,,3-8[8:1]/7-4[8:1],,
{8}3b-6[8:1]/7b-2[8:1],,3b/7b,,1b>4[8:1]/8b<5[8:1],2b/7b,1b/8b,,2b/4b,3b/5b,4b/6b,5b/7b,4b/8b,4b/8b,3b/7b,,2b/6b,4,3b>8[8:1]/7b<4[8:1],5,3b/7b,,2b/6b,7b,4b>1[8:1]/8b<5[8:1],,8b/4bw8[8:1],,4b,,
{8}2h[4:1]/6,,{32}5b-1[8:1],4,3,2,1,8,7,6,{8}5b,,2b-6[8:1]/8b-4[8:1],3b/7b,2b/8b,,1b/7b,5b/6b,2b/8b,3b/4b,7bp3[8:1]/1bq5[8:1],,1b/7b,,2b/8b,6b,7b<5[8:1]/5b,,3b,2b,1b/8b,7b,
{32}4b/6b,3,2,1,8,7,6,5,4bpp1[8:3],3,2,1,8,7,6,5,4b,,,,,,,,,,,,,,,,7b,6,5,4,3,2,1,8,7b,6,5,4,3,2,1,8,
{8}7b-2[8:1]/3b-6[8:1],,7b/3b,,
{8}1bv6[8:1],6V82[4:1],1,,3-5[8:1],,1<6[8:1],,41,,3,4V25[16:3],,5,6-8[8:1],,1b-5[8:1],2,3-1[8:1],,8-4[8:1],7,6,,25,6,5/7h[4:1],4-2[8:1],3-5[8:1],,,,
{8}1b>4[8:1],,15,6,7-3[8:1],,4>1[8:1],,48,,6,7-3[8:1],,8,1<6[8:1],,5b-2[8:1]*v8[8:1],,,,37,5,2/6-4[8:1],,1v4[8:1]*v6[8:1],,,,7-4[8:1]/3,,,2,
{8}1bV35[4:1],,5-2[8:1],6,7-4[8:1],,8>3[8:1],,85,,6,5V71[16:3]/4,,3,2h[4:1],,8b-4[8:1],7-5[8:1],8,7,1<6[8:1],,2,3,45,6,37,6-4[8:1],5-7[8:1],,,,
{8}8bV64[8:1],,8/3-7[8:1]*-1[8:1],,,,8<5[8:1],,4v7[8:1]/8,,1>4[8:1],,1/5v2[8:1],,8<5[8:1],,8b/1b,,3,4,2-5[8:1]/5-8[8:1],,25,,4b/7b,6,2b/5b,3,4b>1[8:1]/7b<4[8:1],,,,
{8}2b-6[8:1],5,2,7,4-1[8:1],8,4,6,2b-6[8:1],5,2,7,4-1[8:1],8,4,6,3b-8[8:1],5,3,7,1b-4[8:1],6,1,8,5b-1[8:1],7,5b,6,2b>5[8:1]*q6[8:1],,,,
{8}8b<5[8:1],5V37[4:1],8,,2-5[8:1],,1<6[8:1],,14,,3,4>1[8:1],,5,6-3[8:1],,6b/2b-7[8:1]*-5[8:1],,,,84,6,5/7<4[8:1],,3v8[8:1]*-1[8:1],,,,7v4[8:1]*-5[8:1],,,,
{8}3bv4[8:1],4V28[4:1],3,,7-5[8:1],,1>4[8:1],,16,,7,6/5V71[16:3],,4,3-7[8:1],,1b<6[8:1],1,5>2[8:1],5,8-4[8:1],8,1,2,35,6,74,6-4[8:1],5-7[8:1],,,,
{8}2bq6[8:1],,8-3[8:1]*-5[8:1]/2,,,,6<1[8:1],,6/2-6[8:1],,4>1[8:1],,4/8-4[8:1],,8/6-2[8:1],,6b/3b-5[8:1]*-8[8:1],,,,17,26,3>1[8:1]/5<7[8:1],,3bv8[8:1]/5bv8[8:1],,3b/5b,,1b>4[8:1]/7b<4[8:1],,,,
{8}6bq7[4:5],,,,,,,,,,,,2b,,,,
