&title=姐姐
&artist=谢金燕
&first=0
&des=金華語
&lv_5=13+
&inote_5=(133)
{1},
{8}5h[8:14]/6,6,7,7,8,8,1,1,2,2,3,3,4-2[8:1],4,,,
4h[8:8]/3,3,2,2,1,1,8,8,7h,{16}5x,5,{16}1h,,2x/4qq5b[16:3],2,6h,,4x/5b,,7b/E5f,,,,
{8}7-1[8:1],,5-7[8:1],,3-5[8:1],,1-3[8:1],,
6-4[8:1],,8-6[8:1],,2-8[8:1],,4-2[8:1],,
5/4x,5,5/6x,6,6/7x,7,7/8x,8,{16}6x,6,4x,4,5x-8b[8:1],5,3x,3,,,,,
6/4,,3,,
2-4[8:1]/5,,,1,2,,5,,2-5[8:1]/6,,,1,2,,6,,2-4[8:1]/5,,,1,2-6[8:1],,6,,
2/6-8[8:1]*-4[8:1],,,,,,,,
7-5[8:1]/4,,,8,7,,4,,7-4[8:1]/3,,,8,7,,3,,7-5[8:1]/4,,,8,7-3[8:1],,3,,
7/3v1[8:1]*v5[8:1],,,,,,,,
6-8[8:1]/4,,,5,6,,4,,3-1[8:1]/5,,,4,3,,5,,6-8[8:1]/3,,,4,6-2[8:1],,2,,
6/2^7[8:1]*^5[8:1],,,,,,,,
6x/5x>7[16:5],,,,B1,,B3,,4x>6[16:5],,,,B8,,B2,,3x,,,,2qq5b[16:5],,2h[8:2],,,,,,
3,,2,,
1b>4[12:1]/5,,,7,1-5[12:1],,8,,3/1<6[12:1],,,4,1-5[12:1],,2,,
1>4[12:1]/7,,,6,1-5[12:1],,8,,3/1x,,4,,6x/2,,7/3,,
8<5[12:1]/4,,,2,8-4[12:1],,1,,6/8>3[12:1],,,5,8-4[12:1],,7,,
8<5[12:1]/2,,,3,8-4[12:1],,1,,6/8x,,5,,3x/7,,2/6,,
8/1-4[12:1],,,8,8/1-6[12:1],,7,,1>4[12:1]/5,,,7,7/1,,8,,
1/8-5[12:1],,,1,1/8-3[12:1],,2,,8<5[12:1]/4x,,4,,3x/8,,2,,
8x/1x>7b[16:5],,,,B5/E5,,B3/E3,,2x>8b[16:5],,,,B6/E6,,B4/E4,,
3x<1b[8:3],,B7/E8,,,,1>5b[8:2],,,,5b,,,,,,
{8}
7-1[8:1],,2-6[8:1],,5-3[8:1],,1-7[8:1],,
4-6[8:1],,3-7[8:1],,8-2[8:1],,3-5[8:1],,
8-6[8:1],,1-5[8:1],,2-4[8:1],,6-8[8:1],,
3-1[8:1],,4-8[8:1],,5-7[8:1],,1-3[8:1],,
6-4[8:1],6,3-7[8:1],3,8-2[8:1],8,4-6[8:1],4,
7-3[8:1],7,2-8[8:1],2,4-6[8:1],4,3-7[8:1],3,
{16}8,,8,,8,6,8,5,8,4,8,3,8,2,8,1,
{8},2qq5b[16:5],2h[8:2],,,3,2,1/8,
{32}7b,6x,5x,,1b,2x,3x,,8b-2b[12:1],7x,6x,,2b,3x,4xqq5[16:3],,
{16}8b`E2f,,4x,,5,,6,,8/2,,7xv5[8:1],,5q1[32:5]/4,,8x,,,,3,,7,,1/8,,
{32}2b,3x,4x,,8b,7x,6x,,1b-7b[12:1],2x,3x,,7b,6x,5xpp4[16:3],,
{16}1b`E8f,,5x,,4,,3,,1/7,,3xV15[16:3]*v5[16:3],,6/4,,3x,,,,6,,7,,8/1,,
{48}2b,3x,4x,,,,2xb,3x,4x,,,,2xb-8b[12:1],3x,4x,,,,2xb,3x,4xq6[16:3],,,,
{16}2xb`E1f/D1,,4x,,1x,,2x,,3v8[8:1]/6,,8V25b[32:5],,3/5,,7,,,,3/8,,4/7,,5/6,,
{8}4-2[8:1],4,7-5[8:1],7,3-1[8:1],3,6,5,
4h[8:1]/3,2,4h[8:1]/3,1,4h[8:1]/3,8,5/4,7,2qq5b[16:8],2h[8:5],,,,,,,
{16}8/4h[8:1],,,7/4h[8:1],,,6V84[8:2]*V83[8:2]/4h[8:1],,,6/5,,,,,,,
{16}5/6h[8:1],,,4/6h[8:1],,,2V48[8:2]*V47[8:2]/6h[8:1],,,1/2,,,,,,,
{16}5/2h[8:1],,,4/2h[8:1],,,3V17[8:2]*V15[8:2]/2h[8:1],,,4/3,,,,,,,
{16}4xh,,,5,4h,,7,,4h,8>5b[10:1]*q5b[10:1],8,,{32}E1f,E2,E3,E4,E5,,,,
{16}7xh,,,5,7h,,3,,7h,2>7b[12:1]*q7b[12:1],2,,{32}E3f,E4,E5,E6,E7,,,,
{16}1x/8x,,1x/8x,,1,3,1,4,1,5,1,6,1,7,1,8,
{8},2qq5b[16:5],2h[8:2],,,3,2,1/8,
{32}7b,6,5,,3b,2,1,,7b-4b[12:1],6,5,,3b,2pp1[16:3],1,,
{16}7b`B6f,,2x,,5,,6,,8/2,,7bqq5[8:1]/3,,5V71[32:5]/4,,7/8b,,,,3,,7,,1/8,,
{32}2b,3,4,,6b,7,8,,2b-5b[12:1],3,4,,6b,7qq8[16:3],8,,
{16}2b`B3f,,7x,,3,,2-6b[8:1],,1/7,,8b-5[8:1]*-3[8:1]/2,,7,,8b,,,,6/4,,3,,7/2,,
{48}8x/3b,4x,5x,,,,8x/3xb,4x,5x,,,,8x/3xb,4x,5x,,,,8x/3xb,4x,5xpp8[16:3],,,,
{16}8x/A3/A4/D4f,,5x,,1,,2,,
3bv8b[8:1]/7bv4[8:1],,8bV24b[32:5]/4bV68[32:5],,,,,,,,6/1,,5/2,,4/3,,
{8}5-7[8:1],6,2-4[8:1],3,6-8[8:1],7,3,4,
5h[8:1]/6,8,5h[8:1]/6,8,5h[8:1]/6,1,4/5,7,2qq5b[16:6],2h[8:3],,,,1,2,3/5,
{8}6x^1[8:1],6,2^5[8:1],2,6^1[8:1],6,2,3,
4h[8:3]/6,7,6v3[8:1],7,3b-5[8:1]*-8b[8:1],,{32}A3,E3/E4,,,,,,,
{8}3x^8[8:1],3,7^4[8:1],7,3^8[8:1],3,7,6,
5h[8:3]/3,2,3p7[16:3],2,7b-5b[8:1]*v4[8:1],,{32}A7,D7/E7,,,,,,,
{8}7x^2[8:1],8,3^6[8:1],4,7^2[8:1],8,3,4,
5h[8:1]/6,7,5h[8:1]/6-2[8:1],8,6/2bpp4b[8:1]*qq1[16:3],,{32}A2,E2/E3,,,,,,,
{8}2x^7[8:1],1,6^3[8:1],5,2^7[8:1],1,6,5,
4h[8:1]/3,2,4h[8:1]/3,1,4h[8:1]/3,8,4h[8:1]/3-7b[8:1],2,
3xb<8z4[8:10]/1b/Cf,1x,1x,1x,1xh,1xh,1xh,1xh,
1xh[64:1],1xh[64:1],1xh[64:1],1xh[64:1],1xh[32:1],1xh[32:1],5/4,7,
2bqq5b[8:16],2bh[8:20],,,,,,,,,,,,,,,,,,,,,,,,,
