&title=Horizon Blue
&artist=Nothing But Requiem
&first=0.05
&lv_5=14+
&des_5=Richer
&inote_5=
(200){4},{1},{24}1,
8,1,8,1,8,{2}1b>1[2:5],
{1},,{4},,{8}7/3,
7/3,2/6,2/6,
1/5,1/5,{24}2,3,4,6,7,8,3,4,5,6,7,8,{4}1-5b[8:1],
{1}Cf/1b<4[1:1],
{2},3q5[1:1],
{4},6x<1[4:1],,,8h[4:3]/6>2[8:3],
,,C,
,,{2}6p4[1:1],
{4},3x>8[4:1],,,1h[4:3]/3<7[8:3],
,,C,
,6/2>5[4:3],E7,E8,
E1,E2,,3/7<4[4:3],
E3,E2,E1,E8,
,1>6[4:5],E5,E6,
E7,E8,E1,E2,
E3,E4,E5,E6/E2/Cf,
,8/1,6/2>6[2:1],7h[8:1],
{8},8,{4}1,,5/4,
7/3>7[2:1],6h[8:1],{8},5,{4}4,
,8/1,7-4[8:1],3>8[8:1],
6p4[2:1],1,1,1q5[4:1],
5<8[4:1],8-4[4:1],{2}4-7b[8:1]*-1b[8:1],
{4},1/8,3/7<3[2:1],2h[8:1],
{8},1,{4}8,,4/5,
2/6<2[2:1],3h[8:1],{8},4,{4}5,
C,6/2>5[4:1],{8}6,7,{4}8,
3/7<4[4:1],{8}3,2,{4}1,6/2>5[4:1],
8-4b[8:1],8b,,6h[8:1]/2h[8:1],
7h[8:1]/3h[8:1],8h[8:1]/1h[8:1],5h[8:1]/4h[8:1],6h[8:1]/3h[8:1],
7h[8:1]/2h[8:1],8h[8:1]/4h[8:1],1h[8:1]/5h[8:1],6h[8:13]/2h[8:1],
3h[8:1],4h[8:1],5h[8:1],4h[8:1],
3h[8:1],2h[8:1],{16}1,2,3,4,5,6,7,8,
1/5,2/6,3/7,4/8,{4}B5f/1bs5[4:1],,,3-1[8:1]/7-5[8:1],
7/3-7[8:1],3/4V68[4:1],8V24[4:1],
{2}4w8[8:1],{4}2-5[8:1],2/8-4[8:1],
8/3-8[8:1]*-6[8:1],3,,7-5[8:1]/5-1[8:1],
7/5,2-4[8:1]/4-8[8:1],2/4,7-3[8:1],
7,5x/4xh[1:1],{8}8,8-3[8:1],,8,
{16},,,,3,2,1,8,7,6,5,4,{4}3b,
2/8,2-5[8:1],2/7,{8}8,3,
{4}8-5[8:1],8/2,{8}1-3[8:1],8,7-1[8:1],6,
5w1[8:1],4,{4}5,{8},,8/1,7/2,
5,4,{4}4-7[8:1],2/4-1[8:1],8<5[8:1],
,4x/5xh[4:1],{16}1,2,3,4,5,6,7,8,
1,2,3,4,7,6,5,4,3,2,1,8,{4}7b,
6-8[8:1]/2-4[8:1],2/6-2[8:1],6/5V31[4:1],1V75[4:1],
{2}5w1[8:1],{4}7-4[8:1],7/1-5[8:1],
1/6-1[8:1]*-3[8:1],6,,2-4[8:1]/4-8[8:1],
2/4,7-5[8:1]/5-1[8:1],7/5,2-6[8:1],
2,4/5h[1:1],{8}1,1-6[8:1],,1,
{16},,,,6,7,8,1,2,3,4,5,{4}6b,
7/1,7-4[8:1],7/2,{8}1,6,
{4}1-4[8:1],1/7,{8}8-6[8:1],1,2-8[8:1],3,
4w8[8:1],5,{4}4,{8},,3,4,
2/5,3,4/6,8,{4}2/7,{8}8/1,7,
8/1,2,6/3,4-8[1.05##0.1]/5-1[1.05##0.1],{2}4h[2:1]/5h[2:1],
{32},,,,,,,,5b/4b,Cf,,,,,,,{16}2,3,4,5,6,7,8,1,
{4}2h[8:1]/7h[8:1],3h[8:1]/4h[8:1],8h[8:1]/1h[8:1],2b-5[8:1]/6b-1[8:1],
2/6,{8}8h[16:1]/4h[16:1],7h[16:1]/3h[16:1],{4}2h[8:1]/6h[8:1],5h[8:1]/4h[8:1],
7h[8:1]/1h[8:1],3h[8:1]/6h[8:1],{16}1/5x,2/6x,3/7x,4/8x,5/1x,6,7,8,
{4}1h[8:1]/5h[8:1],2h[8:1]/4h[8:1],3h[8:1]/7h[8:1],8h[8:1]/2h[8:1],
1h[8:1]/4h[8:1],6h[8:1]/3h[8:1],8h[8:1]/1h[8:1],8h[8:1]/6h[8:1],
8h[8:1]/3h[8:1],8h[8:1]/2h[8:1],6h[8:1]/5h[8:1],{8}4h[16:1]/3h[16:1],3h[16:1]/2h[16:1],
{4}1h[8:1]/2h[8:1],8h[8:1]/7h[8:1],2h[8:1]/5h[8:1],7b-4[8:1]/3b-8[8:1],
3/7,{8}1h[16:1]/5h[16:1],2h[16:1]/6h[16:1],{4}3h[8:1]/7h[8:1],6h[8:1]/4h[8:1],
7h[8:1]/2h[8:1],8h[8:1]/4h[8:1],{16}1/5x,8/4x,7/3x,6/2x,5/1x,4,3,2,
{4}1h[8:1]/5h[8:1],7h[8:1]/4h[8:1],5h[8:1]/2h[8:1],8h[8:1]/1h[8:1],
6h[8:1]/4h[8:1],5h[8:1]/3h[8:1],1h[8:1]/2h[8:1],8h[8:1]/7h[8:1],
6h[8:1]/3h[8:1],7bh[2:1]/2bh[2:1],,,8/1>3[8:1],
1/8,8/1,7/2>4[8:1],
7/2,{8}7/2,7,{4}6/3<5[8:1],6/3,
3/6,5/4>1[16:3],{16}8/4,7,6,5,8x,7x,6x,5x,
{4}4x>2[8:1],5/4,5/4,6/3>1[8:1],
6/3,{8}6/3,6,{4}7/2<8[8:1],7/2,
7/2,{8}1b,8b,2b,7b,3b,6b,
3/5,3/5,B1/B2,B7/B6,8,8,{4}E3,
C,E7,{8}6/4,6/4,B8/B7,B2/B3,
1,1,{4}E7,C,E3,
{6}6x/5,5x/4,3/4x,{12}8/7x,8/7x,8/7x,8/7x,,8x/1,
,1x/2,,6x/5,6x/5,6x/5,{2}5b/6bxq7[2:1],
{4},C,{16}1,8,2,7,3,6,4,5,
{4}6bx/3b-8[8:1],3/5-1[8:1],5/2>5[8:1],2/8-4[8:1],
8/1,{8}2/6,3/7,{4}4b/8b<5[8:1],8/3-8[8:1],
3/6-2[8:1],6/1h[4:1],{16}4,5,6,7,8/1,2,3,4,
{4}6b/5b-2[8:1],5/8-4[8:1],8/3-8[8:1],3/6-1[8:1],
6/2>5[8:1],2/8,1b-5[8:1],1>4[8:1]*<6[8:1],
1b,8b-4[8:1],8<5[8:1]*>3[8:1],8b,
1b/8b-4[8:1],8/3-8[8:1],3/6-2[8:1],6/1-5[8:1],
1/8,{8}7/3,6/2,{4}1b/5b-8[8:1],5/2-6[8:1],
2/7-2[8:1],7/4h[4:1],{16}1,8,7,6,5/4,3,2,1,
{4}7b/8b-3[8:1],8/5-1[8:1],5/4>1[8:1],4b/7b-3[8:1],
7/2-5[8:1],2/6-1[8:1],6b/4b-8[8:1],4/7<4[8:1],
2-7[8:1]/7v4[8:1],2b/7b>4[8:3],,,5h[4:3],
4,4,4-1[8:1]*-7[8:1],
4b,{8}8x-4[8:1],7,8b/1b-5[8:1],2,1b/7b-4[8:1],6,
7b-1[8:1]/2b-5[8:1],3,{4}7b/2b,{16}8/4,7/3,6/2,5/1,4/8,7,6,5,
{4}4b-1[8:1]/8b-5[8:1],8b/4b,{16}6/2,7/3,8/4,1/5,{4}2b-8[8:1]/6b-4[8:1],
2b/6b,{16}3/7,2/6,1/5,8/4,{4}7b-2[8:1]/3b-6[8:1],7b/3b,
8x/1x,{8}7/2,6/4,8/2,3/4,8/1,6/3,
5-8[8:1]/4-1[8:1],6/3,{4}5/4,{8}2/7,8/1,{12}6xh[8:1]/C,,3xh[8:1]/C,
,8x/C,{24},,{8}2/1,3/8,7/4,{16}6,5,{8}4/7-2[8:1],3,
{4}7b,{8}3x/4x,7/5,1/2,3/5,8/1,6/4,
8b/1b,8/1,7/2,7/2,6/3,6/3,8b/7b,8/7,
1/6,1/6,2/5,2/5,{6}3/4,1,{24},{8}8,
7/2,8/1,{4}6bh[2:1]/3bh[2:1],{24},,,,,,,,,,,,1bs5<5<6<7>8>1>2>3<4<5[2:11],
Cf,{1},,,,,{4},,,{16},,{24},{4}8/2,
B4/E5,B6/E6,8/2,
B4/E5,B6/E6,8/2,B4/E5,
B6/E6,{8}1/5,1,2/6,2,7/3,8/4,
{4}1/5-2[8:1],5,7h[4:1],6-1[8:1],
4-7[8:1],2xz6[4:3],{2}2xh[4:3],
{16},,,,,,,,1,8,1,8,1,8,1,8,
{8}2x>5[8:1],6/3,2/8,8,7-5[8:1]*-4[8:1],3,{4}7b-1[8:1]*-2[8:1],
7b,{8}3/4,2/5,{4}1b-5[8:1]/6b-8[8:1],1b/6b,
7h[8:1]/3h[8:1],{8}8/1,6/4,1/7,3/4,{24}1,2,3,5,6,7,
{4}8b-3[8:1]/1b-4[8:1],8b/1b-5[8:1],{8}1-7[8:1]/6-2[8:1],6,{4}1b-4[8:1]*-3[8:1],
1b-7[8:1]*-6[8:1],1b,{8}3b-7[8:1],3,{4}3b/5b<8[8:1],
{8}5b/2b,2,1-5[8:1],8-6b[8:1],1,8,{32}1b,2,3,4,8b,7,6,5,
{4}2b-7[8:1]*-5[8:1],2b,{8}6,6,{4}E3,
E7,{8}1-5[8:1],8-4b[8:1],1b-3[8:1],8b-6b[8:1],1b,8b,
1b,8b,{4}E3,C,E7,
{6}7b/5,6b/4,3/5b,{12}1b/2,1/2,1/2,1b/3,,8b/2,
,1/7b,,6b/5-8z4[6:7],6/5,6/5,{2}6b/5b,
{4},,,Cf,
{24}1b,2,3,5,6,7,2,3,4,6,7,8,2b,1bx,2b,1bx,2b,1bx,2b,3,4,5,6,7,
1,2,3,4,5,6,8bx,7bx,8b,7bx,8b,7bx,{32}8b,1/7,2/6,3/5,,,,,1b,2/8,3/7,4/6,,,,,1b,
2,3,4,8b,7,6,5,2b,3,4,5,6,7,8,1,2,3,4,5,6,7,8,1,{128}2-7[8:1],6-3b[128:15],{16},,,{64},,,{32}2b/6b,
Cf/E1/E5,
E
&lv_6=1
&des_6=
&inote_6=
(125){4},
E
