&title=サイケデリック鬼桜同盟
&artist=SOUND HOLIC
&des=NaOH
&first=0
&des_5=NaOH
&lv_5=13+
&clock_count=4
&inote_5=(160){4},,,,,,,,
{8}1x/8xz4>8[8:9]*z4<8[8:9],1x/8x,,,,,,,,,,,,2x/6x,2bx/6bx,,
7xs3<7[8:9]/3xs7>3[8:9],3x/7x,,,,,,,,,,,,1x/5x,1bx/5bx,,
4x/5x,3,12,8,7-4[8:1]/3,6,1b/7b,,5x/6x,7,18,2,3-8[8:1]/4,6,3b/7b,,
5x/6x,56,4b/7b,,3x/4x,34,2b-5-8-3[4:3]/5b,,7h[8:4],,,,,6bx,6bx,,
{16}
2,5,2,5,3,4,3,,25,,3,4,,4,3,,7,4,7,4,6,5,6,,47,,6,5,,5,6,,
4,5,4,5,3,4,3,4,2,5,2,5,1-4[8:1]*-3[8:1],,8,,
1b-7[8:1]*-6[8:1],,,,1b-4[8:1]*-3[8:1],,,,1b-7[8:1]*-6[8:1],,,,1b,,,,
4,5,4,5,3,4,2,,15,,2,4,,4,3,,5,4,5,4,6,5,7,,84,,7,5,,5,7,,
2,8,2,8,3,7,3,7,4,6,3,5,2,4,1,,
5,5,1,1-5[8:1],,5V72-4[16:7]b,,A1f,,,,,,,,,
{8}
6h[8:1],,6h[8:1],,5h[8:1]/7h[8:1],,5h[8:1]/7h[8:1],,
4h[8:1],,4h[8:1],,3h[8:1]/5h[8:1],,3h[8:1]/5h[8:1],,
2h[8:1],,3h[8:1]/4h[8:1],,5h[8:1]/6h[8:1],,7h[8:1]/8h[8:1],,
1/6h[4:1],,A2,E1,A7,E6,E4,,
3h[8:1]/4h[8:1],,2h[8:1]/5h[8:1],,5h[8:1]/6h[8:1],,4h[8:1]/7h[8:1],,
7h[8:1]/8h[8:1],,6h[8:1]/1h[8:1],,1h[8:1]/2h[8:1],,8h[8:1]/3h[8:1],,
6h[8:1]/5h[8:1],,5h[8:1]/4h[8:1],,4h[8:1]/3h[8:1],,3h[8:1]/2h[8:1],,
1-7-5-3[8:4]/2,,E3,E2,E1h[4:1],,,,
{8}3x,5,25,1,6,5,47,8,1-5[8:1],28,1,{16}7,7h[16:3],,,E1,E2,E3,E4,E5,,
{8}6,6,57,48,3,3,24,15,8-4[8:1],57,8,{16}2,22h[16:3],,,8,4,7,3,6,2,
5<2[4:1],,4,,5,,3,3h[16:3],,,,5x,6x,7x,8x,1x,
4>1[8:1],,1V75V31[4:2]b,,4,,6,6h[16:5],,,,,,,,,
6-1[8:1]/5,,,6/5h[16:3],,,,,3>8[8:1]/4,,,3/4h[16:3],,,,,
6-4[8:1]/2,,,6/2h[16:3],,,,,3^6[8:1]/7,,,3/7h[16:3],,,,,
8,,57,,46,,35,,2,3,4,5,8V64-2[8:3]b,7,6,5,A8f,,,,,,,,7,1,7,1,8b-4[8:1],,,,
3bx/8bx,,1,,2^7[8:1]/6,,1,,24,,5-1[8:1],,4,,35,,
2x-4[8:1],,4-8x[8:1],,2x,,6,6h[16:3],,,1,5,1-5[8:1],6,2,,
1x/6x,,8,,7^2[8:1]/4,,1,,7<4[8:1],,5,,7-3[8:1],,2,2h[16:5],
7x,,,,5,6,7,8,2-5[8:1],1,3,4,2b,,,,
8,1,8,1,7,,3,4,2-6[8:1],,1,,2/5h[4:1],,,,
1,,1,5,,5,3h[8:1],,{24}2bx-6[8:1],1,8,7,6,5,2bx/4bx,,,,,,
{16}15,,2,4,,4,2,,36,,4,8,,8,2,,
1,,3b/7b,,5,,4b/8b,,7,,5b/6b,,1b-5[8:1]/7b,,,,
6bx/1bx,,8,,7^2[8:1]/3,,8,,75,,4-8[8:1],,5,,64,,
7x-5[8:1],,5x-1[8:1],,7x,,3,3h[16:3],,,8,4,8-4[8:1],3,7,,
3x-8[8:1],,2,,5-7[8:1],,6,,4x-2[8:1],,2-6-8[4:1],,6,,5,5h[16:5],
,,,,1,2,3,4,6^3[8:1],5,7,8,6b,,,,
2,8,3,8,4,,6,5,7-4[8:1],,4-8[8:1],,7,,2,,
1,,24,,35,,4,6^3[8:1],{24}2x,1x,8x,7x,,,1b,,,,,,
{16}6,5,7,5,6,,3,4,2,,15,,2v4-1[4:3],6v8-5[16:11]b,3,7,,,,,,,,,,,,,,,,,
3x,4,3,4,2x,5,2,5,1x,6,1,6,8x,7,8,7,1x,5,1,5,2x,6,2,6,3x,7,3,7,4x,8,4,8,
4x,3,2,1,4x,5,6,7,3x,2,1,8,4x,5,6,7,18,,
5b/7b,,45,,2b/4b,,36,,4b/8b,,1-5[8:1]/2-5[8:1],,38,,
1b/2b,,,,3,4,,25,,25,,3h[16:3],4h[8:1],,,,
6,,6,,6,5,,47,,47,,6h[16:3],5h[8:1],,,,
5x,6,5,6,4x,5,4,5,3x,4,3,4,2x,1,3,8,
4x,7,5,6,4x,5,3,4,1x-5[8:1],8,2,7,1b,,,,
3-5[8:1],,3,,6,,6,,7-5[8:1],,7,,3,,3,,
2>5[8:1],,6,,7,,8,8h[16:3],,,E5,,E7,,E3,,
6-8[8:1],,6,,2,,2,,4-2[8:1],,4,,6,,6,,
8<5[8:1],,1,,2,,3,3h[16:3],,,B8,,B3,,B5,,
2,,2,,4,,3,4>1[8:1],,,8,,8,,,,7,,7,,5,,6,5<8[8:1],,,1,,1,,,,
2h[16:3],,,6h[16:3],,,4,,7h[16:3],,,3h[16:3],,,5,,
1h[16:3],,,5h[16:3],,,3,,8h[16:3],,,4h[16:3],,,6-2[8:1],,
2w6[8:1],,,,,,,,8,,8,,3,,3,,6,5,6,,7,,7,,1,8,2,7,1-5[8:1],,,,
{4}1bV38-4-7-5[4:14]b/Cf,,,,,,,,,,,,,,,,
3h[4:3]/5h[4:1],,7h[4:1],,5v2-8[4:2]*v8-2[4:2],,,,
{16}3,,,3h[16:3]/4h[16:3],,,,,6,,,5h[16:3]/6h[16:3],,,,,
2,,3b/1b,,8,,7b/1b,,6,,5b/1b,,7-4[8:1]/3,,1b/5b,,
7b,,1,,3^6[8:1]/8,,2,,3-8[8:1]/6,,7-4[8:1],,3,,7,,
1-5[8:1],,5-1[8:1]b,,61,,8,8h[16:3],,,3,7,2>5[8:1],8,3,,
62,,8,,2^7[8:1]/6,,8,,2^5[8:1]b,,4,,2-6[8:1],,8,8h[16:5],2,,,,
5,7,4,5,3,4,1,5,2,6,4,8,
2,7,3,4,2^7[8:1],,8,8,2^5[8:1],,6-2[8:1],,2,,6,,
3,,4,,15,,7h[16:1]/8h[16:1],,
{24}1xbp5[8:1]b/5xbp1[8:1]b,26,37,48,,,,,,,,,
{16}3,4,2,4,3,,6,5,7,,18,,2,1,2,1,
2qq6[4:2]b,,,,5,,5,,5,,5,,5,,,,
3,4,2,1,3,4,2,5,3,4,1,8,3v8V24[4:3]b,7v4V68[16:11],1x,5x,,,,,,,,,,,,,,,,,
{16}
2,4,2,4,3,5,4,6,2h[8:1],,4,2h[8:1],,6,2h[8:1],,
5,3,5,3,6,4,7,5,8h[8:1],,2,8h[8:1],,4,8h[8:1],,
2,6,2,6,1,5,1,5,3,7,3,7,4-2[8:1]*-1[8:1],,5,,
4b-6[8:1]*-7[8:1],,,,4b-1[8:1]*-2[8:1],,,,4b-6[8:1]*-7[8:1],,,,4b,,,,
2,4,2,4,3,5,4,6,2h[8:1],,5,3h[8:1],,6,4h[8:1],,
5,3,5,3,6,4,7,5,8h[8:1],,3,7h[8:1],,2,6h[8:1],,
1,5,1,5,3,7,3,7,4,8,3,7,2,6,1,5,
2,2,6,6,,4bh[16:1]/8bh[16:1],,,
7,7,3,3,,1bh[16:1]/5bh[16:1],,,
2,2,4,4,5,5,7,7,1,1,5,5,,3bh[16:1]/7bh[16:1],,,
2,2,6,1s5[4:1]b,,8,,1,,,,A8f,,,,,
