&title=Metaphomation
&artist=lapix & RYOQUCHA
&first=0.57
&lv_1=1
&des_1=
&inote_1=
(150){4},{1},,,,,,,,,,,,,,,,,,,,,,,,,,,,,,,,,,,,,,,,,,,,,,,,,,,,,,,,,,,,,,,{4},{2}1,
{32}2h[2:1]/8h[2:1],,,,,,,,,,,,,,,,,3/7,4/6,5,,,,,1b/B4/E5/A4f,2,3,4,5,6,7,8,
1/5,2,3,4,5,6,7,8,1/6,2,3,4,5,6,7,8,1-6v3b[4:1]/7-5-2[4:1],2,3,4,{8}5,,,,,{4}1>4[12:1]/5<8[12:1],
5/1<5[32:3],{32}5b/1,4,3,2,1,8,7,6,
5/7,4,3,2,1,8,7,6,5/8,4,3,2,1,8,7,6,{2}5-3-8[4:1]/1-7-4[4:1],
E
&lv_5=14+
&des_5=路过的沙发太 VS 路过的JACK
&inote_5=
(150){4}E2,E3,{32}E4,D4,,,,,,,{4}E5,
E6,E7,{32}E8,D8,,,,,,,{4}E1,
D2,E3,{32}E4,D4,,,,,,,{4}E5,
D6,E7,{32}E8,D8,,,,,,,{4}D7,
D6,D5,{32}D4,E4,,,,,,,{4}D3,
E2,D1,{32}D8,E8,,,,,,,{4}C,
{1}8bxh[1:1]/4bx-7-1-5-3b[4:3],
{4},7/4,{8}3/6-2[12:1],2,{4}6/Cf/1-5[12:1],
8b/1b,{24}4/7-4[8:1],3,{6}2,{24}7/1-7[32:3],,,2-6[8:1],,,{8}1,2,
8-5[8:1],7/5-8[8:1],{16}8/4,3,{8}2,3-1[8:1],2,{4}6/3b-5[8:1],
8/3-8[8:1],6/3,{8}1-5[64:7]/7-4[64:7],2/6,{4}1/7,
{16}4/7,3,2,1,4,3,2,1,4,8,3,7,2,6,1,5,
{4}8b<5[8:1],{24}4/8,3,{6}2,{24}7/1-5[8:1],,,2-4[32:3],,,{8}1,2,
8-5[8:1],7/5-8[8:1],{16}8/4,3,{8}2,3-1[8:1],2,{4}6/3b-5[8:1],
8/3-8[32:3],6/3,{64}1x/7x,B7/B1f,,,,,,,,,,,2x/6x,B6f/B2,,,,,,,,,,,{8}3x/5x,
{16}2,6,3,5,4,4,3,5,2,6,1,7,{4}8b-4[12:1],
1b/8b,{24}5/2-5[8:1],6/3,{6}7/4,{24}2/8-3[8:1],,,7-4[8:1],,,{8}8,7,
1-5[8:1],2/5-3[32:3],{16}6,7,{8}8,7-5[8:1],6,{4}2/7b-1[8:1],
4/7-3[8:1],7/3-7[8:1],{8}2-5[8:1],2,{4}2/8,
{16}4/7,3,2,1,4,3,2,1,4,8,3,7,2,6,1,5,
{4}8bx-6-4-2-5[8:3],2-6b[8:1],Cf/B3,3b/8b,
{32}2bx/7h[8:1],3,{16}4-1[32:3],{32},,2bx/7h[12:1],3,{4}4,{16}8,8,5,5,7,7,{8}4,
3/5,2,6/4,7,{32}2bx/8h[32:3],3,{16}4,{32},,7bx/1h[32:3],6,{8}5,8/2,
{16}3,7,4,6,5,5,4,6,3,7,2,8,1,1,2,8,
3,2,1,8,4,3,2,1,5,4,3,2,8,7,6,5,
1,4,2,5,1,4,2,5,3,4,3,4,2,5,2,5,
1,2,3,4,7,8,2,3,7,6,5,4,2,1,7,6,
2,3,5,6,3,4,6,7,{8}5-2[8:1],4/7,{4}5/8<5[16:3],
{16}4xh[32:1],3,2,1,4,3,2,1,5,4,3,2,7,6,5,4,
1xh[32:1],2,3,4,1,2,3,4,8,1,2,3,6,7,8,1,
4xh[32:1],3,2,1xh[32:1],8,7,6xh[32:1],5,1xh[32:1],2,3,4,{12}5xh[32:1],6xh[32:1],7xh[32:1],
{4}8x-5[8:1]/4x-1[8:1],8-3-6[3:1]/4-7-2[3:1],{8},,,,4b/8b,
{16}3,4,{8}2,{16}6,5,7,4,6,5,{8}6,4/7,
3/8,{16}2,1,{8}3,{16}7,8,6,1,7,8,{8}7,1/6,
2/5,{16}3,4,{8}2,{16}6,5,7,4,8,5,{8}7,6/4,
5/2,{16}3,4,{8}2,{16}6,5,7,4,8,3,7,2,6,1,
{4}5x-8[16:1],{16}3>1[0.3##0.15],{32},,,,7bx,6bx,{16}5bx,,,6bx-1[16:1]/2bx-5[16:1],,,{8}6bx/2bx,
{16},,7/3-5[64:5],7/3,,8v5[32:3],,1V35[8:1],8,,,1,,,{8}7,
8/4,3/7,{16}2,6,1,5,{32}2,4,2h[16:1],4h[16:1],{96},,,,,,,,,,,,{12}1b/5b,2b/6b,3b/7b,
{4}8b/4b-2[12:1],4/7<5[16:1],{32}3,2,1,8,7,6,5,4,{24}3/5-2[8:1],4,3,2,1,8,
{4}7/5<7-1>3-5-1[4:13],E2,{32}E1,D1,,,,,,,{4}E8,
D7,E6,{32}E5,D5,,,,,,,{4}E4,
D3,E2,{32}E1,D1,,,,,,,{4}D8,
D7,D6,{32}D5,E5,,,,,,,{4}C,
{8}1-3[4:1],1,8,7,6-8[4:1],6,5,4,
3-5[4:1],3,2,1,8-6[4:1],8,1,2,
3-1[8:1],2,5/3,6,{16}4/5,3,2,1,8/4,5,6,7,
{1}8/4b-2-6-3-8b[16:9],
{32}6b/2b-8[32:3],3/5,{16}4,,,{8}2/6-1[8:1],5,{16}6-4[8:1],3,,3,{8}6/2-5[8:1],1,
7/2-8[8:1],8,2/6-1[8:1],5,{16}6-4[8:1],3,,3,{4}6/2-5[8:1],
{8}2/6-1[8:1],7,6/2-8[8:1],3,{16}2/6-4[8:1],5,,3,6/2x,2x,2x,2x,
{32}B1,B2,,,B6,B5,,,{16}1,5,2,6,B2,B1,B8,B7,B6,B5,B4,B3,
{32}B2/7b-1[32:3],6,{16}5,,,{8}7/3-8[8:1],4,{16}3-5[8:1],6,,6,{8}3/7-4[8:1],8,
2/7-1[8:1],1,7/3-8[8:1],4,{16}3-5[8:1],6,,6,{4}3/7-4[8:1],
{8}7/3-8[8:1],2,3/7,{16}6,5,2xh[8:1]/4xh[8:1],,,7xh[8:1]/5xh[8:1],,,{8}4x/6xh[8:3],
{16}3,2,1,8,7,6,5,4,3x/8,7,6,5,{24}2,4,2,4,2,4,
{4}2v5[64:5],{16}5/2,,,8v5[0.5##0.125],,,{8}6/7,{4}5/8,
{8}4h[16:1]/3v8[64:5],4/6h[16:1],{16}3/5,,,7v4[0.5##0.125],,,{8}5/6,4/7,3,
5h[32:1]/2v7[12:1],6h[32:1]/4h[16:1],{16}5/2,,,4v7[0.5##0.1333],,,{8}5/3,{12}4/2h[24:1],2h[24:1],2h[24:1],
{8}8,8,{16}4,7,4,7,5,4,3,2,8,7,6,5,
{4}1bx-3-5-7-4[8:3],7-3b[8:1],,6b/1b,
8-6-4-2-6b[8:3],2-5[8:1],,3b/8b,
{8}2/7,1/6,{16}2,5,2,5,{32}2,3,{16}4h[8:1],{32},,2,3,{16}4h[16:1],{32}2,3,{8}4h[8:1],
{1}2-5-8-3[8:5],
{2}2h[4:1]/8h[4:1],{4}8/2,{32}Cf/1-5[8:5],2,3,4h[16:1],,,,,1,
2,3,4h[16:1],,,,,1-5b[8:1],2,3,4h[16:1],,,,,{4}1b,2b/8b,
{8}3/7,{24}4,5,4,{8}5,6/5,{4}7h[16:1]/8h[16:1],{32}7/8-4[8:5],6,5,4h[16:1],,,,,1,
2,3,4h[16:1],,,,,8-4b[8:1],7,6,5h[16:1],,,,,{4}8b,{16}6,6,2,2,
{4}5<6-8[64:7],1>2>4b[64:7],7,{32}A2f/5-1[8:5],6,7,8h[16:1],,,,,5,
4,3,2h[16:1],,,,,5-1b[8:1],6,7,8h[16:1],,,,,{16}5b,,,7,8,7-3[8:1],8,7,
,1-3[64:7]*-7[64:7],,1,,1-4b[32:3]*-5b[32:3],,,,1b,,,2xh[24:1]/4xh[32:1],3xh[24:1]/5xh[32:1],4xh[24:1]/6xh[32:1],5xh[24:1]/7xh[32:1],
{8}5xh[24:1]/6xh[32:1],5xh[24:1]/7xh[32:1],{4}8x<1[16:9]/5xqq1[16:9],{1},{4},,{16}B1h[16:3],
,,B3h[16:3],,,{8}B5h[16:3],{16},B7h[16:3],,,{4}Ch[8:1],
{16},,,,,,,,,,,,,,,,A7h[16:3],
,,A5h[16:3],,,{8}A3h[16:3],{16},A1h[16:3],,,{4}Ch[16:1],
{16},,,,,,,,,,,,,,,,E2h[16:3],
,,E4h[16:3],,,{8}E6h[16:3],{16},E8h[16:3],,,{4}Ch[4:1],
{16},,,,,,,,,,,,,,,,E1h[16:3],
,,E7h[16:3],,,{8}E5h[16:3],{16},E3h[16:3],,,{4}Ch[4:1],
{8}3,2,1/5,2,4/3,5,4/6,7,
8/3,7,5/6,4,7/3,2,1/5,2,
4/3>8[32:5],2,3/4,5,6<1[32:5],7,6/5,4,
{4}3-8[128:13],7-4[128:13],1-5[64:7],8/1,
{32}1x/5x,2,3,4,5,6,7,8,1x/4,2,3,4,5,6,7,8,1x/5,2,3,4,5,6,7,8,1x/4,2,3,4,5,6,7,8,
1x/5,2,3,4,5,6,7,8,1x/4,2,3,4,5,6,7,8,1x/5,2,3,4,5,6,7,8,1x/4,2,3,4,5,6,7,8,
1x/6,2,3,4,5,6,7,8,1x/4,2,3,4,5,6,7,8,1x/6,2,3,4,5,6,7,8,1x/4,2,3,4,5,6,7,8,
{128}1-4-2-6b[2:1],7-5-1-7[0.3875##0.8],{4},,,{16},,,{64},,,{8}5/4<7[8:1],
2/7,3/4x-1[8:1],{16}2,8,{8}4xv7[8:1],6,4x/2,3,
4<7[8:1],2/8,3/4x-1[8:1],{16}2,8,{8}4xv7[8:1],6,4/2,3,
4<7[8:1],2/8,3/4x-1[8:1],{16}2,8,{8}4xv7[8:1],6,4x/2,3,
{16}4,4,8,8,2,2,6,6,1,2,3,4,1,2,3,4,
{8}5>2[8:1],7/1,6/5x-8[8:1],{16}7,1,{8}5xv2[8:1],3,5x/7,6,
5>2[8:1],7/1,6/5x-8[8:1],{16}7,1,{8}5xv2[8:1],3,5/7,6,
5>2[8:1],7/1,6/5x-8[8:1],{16}7,1,{8}5xv2[8:1],3,5x/7,6,
{16}5h[16:3],,,1h[16:3],,,{8}7h[8:1],{16}4,4,8,8,2,2,6,6,
{8}1b-4[8:1],2/5,1/6x,{16}8,5,{8}7-4[8:1],6/4,7/3x,2,
1-3[8:1],2/5,1/6x,{16}8,5,{8}7-4[8:1],6/4,7/3x,2,
1-4[8:1],2/5,1/6x,{16}8,5,{8}7-5[8:1],6/4,7/3x,2,
{16}1,4,1,4,2x,5,2,5,4b/3b,4b/3b,,2b-4[0.3##0.1333]/5b-3[0.3##0.1333],,,{8}5b/2b,
{2}1bx-3[12:1]*-4[12:1],8bx-6[12:1]*-5[12:1],
1b-4[12:1]*-5[12:1],8b-5[12:1]*-4[12:1],
{24}2-5[32:3],3,4,5,6,7,{4}8h[4:1],{24}7-4[32:3],6,5,4,3,2,{4}1h[4:1],
{24}2,3,4,5,6,7,2,3,4,5,6,7,{2}1-4-2[32:5]/8-5-7[32:5],
{8}8/1-5[8:1],7/2,1/8,{16}7,7h[16:3],,6,{8}6h[8:1],5-8[128:15],4,
{4}3-1-7[4:1],7-2-4[4:1],{8}4-8[8:1],5,{4}6,
{8}7-4[8:1],8,1,{16}2,2h[16:3],,3,{8}3h[8:1],4-1-7[4:1],5,
{4}7-2-4[4:1],4-6-2[64:23],{8}6-1[64:7],7,,,8-4[8:1],
7,8/2,{16}1,1h[16:3],,3,{8}3h[8:1],2-8-6[4:1],8,
{4}6-2-4[4:1],4-8-4[8:3],{8}6-3[8:1],7,{4}6,
{16}2,2,4,1h[8:1],,5,{8}3,{16}6,6,4,7h[8:1],,3,{8}5,
{24}2,4,2,4,2,4,3,5,3,5,3,5,{8}4,{16}6,4/6,,2,{8}2/4,
6/1-5[8:1],2/5,6/1,{16}7,7h[16:3],,6,{8}6h[8:1],5-8-3[4:1],4,
{4}3-6-1[4:1],1-5-8[64:23],{8}4-1[64:7],3,{4}4,
{16}7x,7,5,6,{8}5/4,4/3,5/2,6/1,5/2,4/3,
{16}2x,2,4,3,{8}4/5,5/6,4/7,3/8,{4}2/1-5[8:1],
1b/7bxh[2:1],{8},,,,8-4[8:1],8/2,
{2}8b/2xh[4:1],{16}8h[16:1],,,7h[16:1]/1h[16:1],,,{8}2h[16:1]/6h[16:1],
3x/5x,{16}2,4,{8}2,3/5,6x/4x,{16}7,5,{8}7,6/4,
{4}4x-1[64:7]/6x-1[64:7],4/6,3-8[64:7]/7-4[64:7],7/3,
6b/2b,1/5-7[128:13],{128}A2/5-1[0.3##0.2],B2,{16},,{64},,,{128}5/E3,B3,{16},,,{64},,,{16}2,
{8}4,{16}6x,5,7,3x,4,2,7x,5,6,2x,4,3,{8}5x,
6/2,1/7,{4}6/2-4[128:13],{128}A7/2-6[0.3##0.2],E7,{16},,{64},,,{128}2/A8,B8,{16},,{64},,,{8}7,
{4}7/5>2[8:1],5/8-4[8:1],{2}4-1[8:1]*-7[8:1],
{4}6b/2b,{16}3,5,3,5,4,6,4,6,3,5,4,6,
3,5,3,5,4,6,4,6,3,5,4,6,3,5,4,6,
2,5,2,6,2,7,2,8,3,7,3,6,3,5,3,4,
2,5,3,4,1,6,2,5,{4}8-4[8:1],8/1,
6b/2b,3h[16:1]/7h[16:1],{32}3/8h[32:1],4x,,,,,4/1h[32:1],5x,,,,,{16}7,{32}3/7h[32:1],4x,
,,,,{16}3,4,2,6,5,7,3,4,1,6,5,8,4,6,
{4}2-5[64:7],2/8h[16:1],{32}3/7h[32:1],4x,,,,,6/2h[32:1],5x,,,,,{8}2,
{4}5/2>5[8:1],8-4[8:1],{2}4-1[8:1]*-7[8:1],
{16}3,5,3,5,4,6,4,6,3,5,4,6,3,5,4,6,
3,5,3,5,4,6,4,6,3,5,4,6,5,7,4,6,
{4}3>8[4:1],8<5[4:1],5>2[4:1],2,
8<4[4:1],4>8[4:1],{2}8w4[6:1],
{128}2bxp8<5q1b[4:11],6bxp4>1q5[0.3875##4.4],{1},,,{4},,{16},,,{64},,,{8}2b/6b,
6b/2b,
{24}1,7,1,7,1,7,2,6,2,6,2,6,1>4b[64:7],2,3,5,6,7,{4}1bx/E8f/B7/B8,
{24}8,2,8,2,8,2,7,3,7,3,7,3,8<5b[64:7],7,6,4,3,2,{4}8bx/E2f/B2/B1,
{24}1,8,1,8,1,8,2,7,2,7,2,7,1,2,3,8,7,6,{32}1,2,3,4,5,6,7,8,
{8}1/5,{16}2,4/2,,7,{8}7/5,{32}3,4,5,6,7,8,1,2,{16}3/7x,7x,7x,7x,
{32}2,3,{16}4,6,5,{32}7,4,{16}7,3,3,8-5[32:3],7,3-8[32:3],4,{8}8,3,
{32}7,6,{16}5,3,4,{32}2,5,{16}2,6,6,2,5,3,5,4,5,3,5,
{32}2,3,{16}4,6,5,{32}7,4,{16}7,3,3,8-5[32:3],1,3-8[32:3],4,{8}8,3,
{32}7,6,{16}5,2,{32}7,6,{16}5,1,{32}7,6,{16}5,2,{32}7,6,{8}5,{16}2,8,3,7,
{32}4,3,{16}2,8,1,{32}7,8,{16}7,1,1,7-3[32:3],8,5>2[32:3],4,{8}7,5,
{32}8,7,{16}6,1,8,{32}2,1,{16}2,8,8,2-6[32:3],1,4<7[32:3],5,{8}2,4,
1xh[16:1],{16}4/2,4/2,,,{8}8xh[16:1]/4xh[16:1],{16}5/7,5/7,,,{8}1xh[16:1]/8xh[16:1],{16}2qq5[0.3##0.85]/7pp4[0.3##0.85],7/2,
,,,,,,,,,,,,{8}3/6,8b/1b,
{32}2/1,3,{16}4,8,4,{32}7,5,{16}7,4,6,2-5[8:1],8,3,4,{8}2,8,
{32}1/7,6,{16}5,2,4,{32}3,5,{16}3,4,2,8-4[8:1],1,7,5,{8}8,2,
{32}5/2,3,{16}4,6,4,{32}7,5,{16}7,4,8,3-8[8:1],7,2,6,{8}3,4,
{16}4xh[8:1]/1xh[8:1],,,3xh[8:1]/6xh[8:1],,,{8}8xh[8:1]/5xh[8:1],{16},7xh[8:1]/2xh[8:1],,,{8}8x/1x-5[8:1],8x/1x,
{4}1bx/7xh[4:1],B2f/B3/E3,5x/2xh[4:1],B7f/B6/E7,
3x/8xh[4:1],B3f/E3/B2,7x/4xh[4:1],B7f/E7/B6,
1h[8:1]/6h[16:3],8h[8:1]/3h[8:1],2h[16:1]/5h[16:1],{8}7h/4h,1h[16:1]/8h[16:1],
8h[16:1]/1h[16:1],2h[16:1]/7h[16:1],3h[16:1]/6h[16:1],4h[16:1]/5h[16:1],3h[16:1]/6h[16:1],2h[16:1]/7h[16:1],8h[16:1]/1-5[8:1],2h[16:1]/7h[16:1],
6b/1b>4[8:1],{16}7,7,{8}1-6[8:1],6,{16}5/1-5[8:1],5,,4-7[0.3##0.2],{8}1,4,
2<7[8:1],{16}8,8,{8}2>5[8:1],5,{16}6/2-6[8:1],6,,7,{8}2/7<4[8:1],8,
3/7-3[8:1],{16}1,1,7<4[8:1],2,{8}2,1/7>2[8:1],{16}2,2,7,3,{8}3,
4h/7h,{16}3,4,{8}5h/2h,{16}6,5,{8}4h/7h,{16}3,4,{8}5h/2h,{16}6,5,
{8}4h[16:1]/8h[16:1],3h[16:1]/7h[16:1],2h[16:1]/6h[16:1],1h[16:1]/5h[16:1],8h[16:1]/7h[16:1],1h[16:1]/6h[16:1],2h[16:1]/5h[16:1],3h[16:1]/4h[16:1],
5h[16:1]/1h[16:1],6h[16:1]/2h[16:1],7h[16:1]/3h[16:1],8h[16:1]/4h[16:1],1h[16:1]/2h[16:1],8h[16:1]/3h[16:1],7h[16:1]/4h[16:1],6h[16:1]/5h[16:1],
{1}8bh[1:1]/4b-7-1-5-3b[4:3],
{4},7/4,{8}3/6-2[12:1],2,{4}6/Cf/1-5[12:1],
8b/1b,{24}4/7-4[8:1],3,{6}2,{24}7/1-7[32:3],,,2-6[8:1],,,{8}1,2,
8-5[8:1],7/5-8[8:1],{16}8/4,3,{8}2,3-1[8:1],2,{4}6/3b-5[8:1],
8/3-8[8:1],6/3,{8}1-5[64:7]/7-4[64:7],2/6,{4}1/7,
{16}4/7,3,2,1,4,3,2,1,4,8,3,7,2,6,1,5,
{4}8b<5[8:1],{24}4/8,3,{6}2,{24}4/3,,,8/2,,,{8}4/5>2[8:1],7/1,
6/5-8[8:1],{16}7,1,{8}5v2[8:1],3,5/7,6,5,7/1,
{16}2,2,8,8,4,4,6,6,5xh[8:1]/7xh[8:1],,,4xh[8:1]/2xh[8:1],,,{8}4x/6xh[8:3],
{16}3,2,1,8,7,6,5,4,8/3-8[32:3],7,6,5,{4}3b/4,
{8}7v4[8:1],6/5,4/7,{16}3,2,{8}1/7v2[8:1],6,7/3,4,
5-2[8:1],8-4[8:1],5,8,1w5[8:1],3/7,{4}1,
{8}3-5[32:3],7,1-3-5[32:5],8v5[128:15],1,8,2,1/7,
{16}2,6,3,5,4,6,3,7,{32}3/7xh[32:1],4x,,,6/2xh[32:1],5x,,,{4}7bx/1bx,
8bx-6-4-2-5[8:3],2-6b[8:1],Cf/B3,3b/8b,
{32}2bx/7h[8:1],3,{16}4-1[32:3],{32},,2bx/7h[12:1],3,{4}4,{16}8,8,5,5,7,7,{8}4,
{4}3h[8:1]/5h[8:1],4h[8:1]/6h[8:1],{16}8h[16:1]/2h[16:1],,,1h[16:1]/7h[16:1],,,{8}8/2,
{16}3,7,4,6,5,5,4,6,3,7,2,8,1,1,2,8-2>4-6<8-4[16:109],
{32},,,,,,,,,,,,,,,,E2,D2,{4},,,{16},,,{32}E3,
D3,{4},,,{16},,,{32}E4,
D4,{4},,,{16},,,{32}E5,
D5,{4},,,{16},,,{32}E6,
D6,{4},,,{16},,,{32}E7,
D7,{4},,,{16},,,{32}E8,
D8,{4},,,{16},,,{32}E1,
D1,
E
