&title=赤より紅い夢(New Classic)
&artist=ZUN
&first=0
&des=mingwen
&clock_count=4
&lv_5=13
&des_5=
&inote_5=(150)
{1},
{1},
{24}2,3,4h[24:16],,,,{4},,5<4[8:12],
{1},,
{24}6,5,4h[24:16],,,,{4},,3>4[8:12],
{1},,
{24}3,4,5p4[24:16],,,,{4},,4>5[8:12]*q5[64:101],
{1},,
{24}6,5,4qq5[24:16],,,,{4},,5<4[8:12]*pp4[64:99],
{1},,
{8}3h[8:1]/4h[8:1],,,,,,7,,
{8},,5s1[8:8]/6,,,,,,
{16},,,,2,,2,,2,,2,,2,1,2b-6[8:1],,
{16},,,,,,,,8,,,6,5,,7,,
{8}2h[8:2]/8-4[8:1],,,,3-7[8:1]/5h[8:2],,,,
{8}8h[8:2]/6-2[8:1],,,,3h[8:2]/1-5[8:1],,,,
{8}2pp5[8:3]/6pp1[8:3],,,,,,8,4,
{16}2b/6b,,,7,1,,3,,5,,6/4,,3,4,3,,
{8}7h[8:2]/1-5[8:1],,,,6-2[8:1]/4h[8:2],,,,
{8}1h[8:2]/3-7[8:1],,,,6h[8:2]/8-4[8:1],,,,
{8}3pp2[8:3]/7pp6[8:3],,,,,,1,5,
{16}3b/7b,,,6,4,,2,,8,,1/7,,{32}6,,5,,6,,,,
{24}7h[8:1],,,8,1,2,3,,,,,,8h[8:1],,,1,2,3,4,,,,,,
{24}2h[8:1],,,1,8,7,6,,,,,,1h[8:1],,,8,7,6,5,,,{32},,6V48[32:14]/1,7/2,
{8}8V62[8:3]/3,,,,,,1,1,
{16}3b/7b,,,2,8,,4/8,,6,,3/5,,2,4,2,,
{24}7<4[8:1],,,2,1,8,7,,,,,,6>3[8:1],,,1,8,7,6,,,,,,
{24}2>5[8:1],,,7,8,1,2,,,,,,3<6[8:1],,,8,1,2,3,,,,,,
{8}1V35[8:3]/7V15[8:3],,,,,,6,6,
{16}4/8,,,7,1,,3,,5,,4/6,,{32}3-7[8:1],2,1,,5,,5,,
{16}3b,,,,,,,,,,,,5qq1[8:6],6,7,,
{16}5,,,,,,,,,,8,,8<5[8:1],,,,
{16}8bqq4[8:6],,,,,,,,1,,,,1-5[8:1],2,3,,
{16}1bqq6[8:6],,,,,,,,,,,,4h[8:1],,,,
{16},,4pp7[8:6],3,2,,,,,,,,1,,1,,
{16}1>4[8:1],,,,1-6[8:1],,,,1-5[8:1],,2,,1,,,,
{16}7,,,,6/4,,6,,6/5,,6,,7/3,,,,
{16}3/5,,3,,3/4,,3,,2/6,,,,1/7,,7,,
{16}5/7,,7,,3/7,,,,2/8,,2,,2/4,,2,,
{16}2/6,,,,2,,1-5[8:1],,8,,1,,7,,,,
{16}6,,7-4[8:1],,8,,7,,1,,,,2,,5,,
{16}4/6,,3,,7,1,7,1,8-4[8:1],,,,2b/8,,,,
{16}1s5[8:6]/5<5[8:14],,,,,,,,,,,,,,,,
{16},,,,5,,,,,,,,,,,,
{16},,,,5,,5,,5,,5,,5,4,5b-1[8:1],,
{16},,,,,,,,3,7,3,7,3,7,2,,
{16}1/8,,7,5,6,,4/5,,3,,5/6,,7,8,7,,
{16}1/6,,2,4,3,,4/5,,6,,3/4,,2,1,2,8,
{16}3-6[8:1],,3,,7-4[8:1],,7,,2-5[8:1],,2,,8-5[8:1],,8,,
{16}1b<6[8:1]*>4[8:1],,,,1,,,,3,5,3,,6,,4/5,,
{16}7/1,,3,4,3,,4/6,,3,5,3,,2,1,3,8,
{16}1,,6,5,6,,3/5,,6,4,6,,7,8,6,1,
{16}8-3[8:1],,7,,6-1[8:1],,5,,4-7[8:1],,3,,2-5[8:1],,1,,
{16}8b>3[8:1]*<5[8:1],,,,8,,,,6,4,6,4,6,4,8h[8:3],,
{16}1,,1,2,3,,4,,4/5h[8:2],3,2,,1,,1,,
{16}8/1h[8:2],,8,7,6,,5,,5/4h[8:2],6,7,,8,,8,{32}1h,2h,
{16}3V51[8:3]/8h[8:3],,,,,,,,7,,7,,2,6,3,5,
{16}4b<7[8:1]*>1[8:1],,,,4,,,,2,8,2,8,2,8,4h[8:1],,
{16}5-1[8:1],,5,6,7,,8,,8-4[8:1],7,6,,5,,5,,
{16}4-8[8:1],,4,3,2,,1,,1-5[8:1],2,3,,4,,4,,
{16}4h[8:3]/5pp1[8:3],,,,,,,,3,,3,,8,7,6,5,
{16}1b>4[8:1]*<6[8:1],,,,1,,,,3,5,2-6[8:1],7,4,,1/2,,
{1},
{24}5,4,3qq6[24:16],,,,{4},,6pp4[256:393]*<4[8:12],,,,,,,,,
{24}4,5,6p3[24:16],,,,{4},,3q5[128:199]*>5[8:12],,,,,,,,,
{1}4>5[50#12:7],
E
