&title=LIFE
&artist=大前司 × Reku Mochizuki feat. レゾナンスもえこ
&first=0
&des=SepTunE
&lv_5=13
&inote_5=(147)
{1},
{8}
4b/8b>7[2:1],,,,7b>5[2:1],,,,
5b<5[8:5],,,,,,1,,
1h[16:3],,,8h[16:3]/2h[16:3],,,7h[16:3]/3h[16:3],,
{16},,6h[8:1]/4h[16:3],,,,6z2[4:1],4s8[16:3],
,,,,,,,,
1pp4[2:1],,1,,5,,5,,
6,,6,,7,,7,,
7,8,6,1,5,2,4,3,
5-8[8:1]*v2[8:1],,4/6,,,,,,
3,4,2,4,3,,1/8,,
6,5,7,5,6,,8/1,,
2/4,,5,3,6,4,7,5,
8-4[8:1],1,7,2,8w4[8:1],,,,
,,,,1/8,,2/7v4[8:1],,
3v8[8:1],,7,,3,,6-4[12:1],,
6-2[12:1],,6-8[12:1],,,,,,
4-1[8:1]*-7[8:1],5,3,,,,,,
7,1>4[12:1],8,2h[16:3],,,,,
2,8<5[12:1],1,7h[16:3],,,,,
8,1,7,2h[8:1],,8,1,,
4w8[8:1],5,3,6,,,,,
{12}
2/6,,,8-3[12:1],1,6,
8-5[12:1],7,2,8-3[12:1],1,6,
8<5[12:1],7,2,8>3[12:1],4,4,
8-4[12:1],4,4,8,,,
7/3,,,1-6[12:1],8,3,
1-4[12:1],2,7,1-6[12:1],8,3,
1>4[12:1],2,7,1<6[12:1],5,5,
1-5[12:1],5,5,1,,,
4/6,3,5,4-8[12:1]/6,3,5,
4-1[12:1]*-7[12:1],,,,,,
5/6,7,4,5/6-8[12:1],7,4,
6-2[12:1]*-4[12:1],,,,,,
2/4,3,3,4/6,5,5,
5/2,3,4,4/7,6,5,
4>1[8:1]/5,3,3,4/5<8[8:1],6,6,
4w8[8:1]/5,,,,,,
{16}
2b<3[8:7]/6b,,,,,,7,,
7,,,,8,,,,
8qq4[8:7],,8,,,,1,,
,,2,,2,,,,
3qq6[8:7],,,,,,6,,
6,,,,5,,5,,
5q1[2:1]*p1[2:1],,,,,,,,
,,,,,,,,
2b/8bV64[8:3],,,,,,,,
2bV86[8:3],,,,,,,,
4bV28[8:3],,,,,,,,
6bV42[8:3],,,,,,,,
6h[4:1],,,,5h[4:1],,,,
4h[4:1],,,,3h[4:1],,,,
7,,7,,8,,8,,
1,,1,,2,,2,,
{12}6,5,7,{16}3,4,2,5,{32}1h,2h,3h,,,,7h,6h,5h,,,,3h,4h,5h,,
{8}
6-2[8:1],2-7[8:1]/8,6,3,4-8[8:1],3/5,4,,
6-3[8:1],3V57[8:1]/7,6,2,1-5[8:1],2/8,1,,
4-8[8:1],8V24[8:1]/3,4,7,6-2[8:1],5/7,6,,
4>1[8:1],3,8<5[8:1],7,4w8[8:1],3,,,
3-7[8:1],7-2[8:1]/1,3,6,5-1[8:1],6/4,5,,
7-4[8:1],4V68[8:1]/8,7,3,2-6[8:1],3/1,2,,
{16}1/7,,6,5,7,,2/8,,
3,4,2,,7,2,6,3,
4>5[8:5]/5,,,,,,,,
,,,,,,,,
{8}
2h[4:15]/6h[4:15],,,,,,,,
,,,,,,,,
,,,,,,,,
,,,,,,,
{24}8,1,8,
{8}7bqq1[8:5]/2bpp5[8:5],,,,,,,,
8bpp6[8:5]/4bV63[8:5],,,,,,,,
5bV74[8:5]/2bpp8[8:5],,,,,,,,
4bv7[8:1]/1bpp4[8:5],,,,{16}8,,,7,,,6,,
{8}5<2[2:1]/4,,2,,2q4[2:1],,4,,
4V61[2:1],,1,,1<3[2:1],,3,,
3s7[2:1],,7,,7>4[2:1],,4,,
4q6[2:1],,8,,1,,2,,
3>6[2:1],,6,,6qq8[2:1],,8,,
8<2[2:1],,2,,2qq5[2:1],,5,,
5>8[2:1],,8,,8p6[2:1],,6,,
6z2[2:1],,1,,8,,7,,
{12}6,6,6,5,5,5,
4,4,4,3,3,3,
{16}8,8,1,7,4,6,3,5,{32}2h,3h,4h,,,,7h,6h,5h,,,,1h,2h,3h,,
{16}
8b-4[8:7],,,,,,1,,
1,,,,2,,,,
2pp6[8:7],,2,,,,1,,
,,8,,8,,,,
7pp3[8:7],,,,,,3,,
3,,,,4,,4,,
4V28[2:1]*V68[2:1],,,,,,,,
,,,,,,,,
7b/1bV36[8:3],,,,,,,,
7bV14[8:3],,,,,,,,
5bV72[8:3],,,,,,,,
3bV58[8:3],,,,,,,,
3h[4:1],,,,4h[4:1],,,,
5h[4:1],,,,6h[4:1],,,,
2,,2,,1,,1,,
8,,8,,7,,7,,
{12}3,4,2,{16}6,5,7,4,{32}8h,7h,6h,,,,2h,3h,4h,,,,6h,5h,4h,,
{8}
3-7[8:1],7-2[8:1]/1,3,6,5-1[8:1],6/4,5,,
3-6[8:1],6V42[8:1]/2,3,7,8-4[8:1],7/1,8,,
6-2[8:1],2V86[8:1]/7,6,3,4-8[8:1],5/3,4,,
6<1[8:1],7,2>5[8:1],3,6w2[8:1],7,,,
6-2[8:1],2-7[8:1]/8,6,3,4-8[8:1],3/5,4,,
2-6[8:1],6V42[8:1]/1,2,7,8-4[8:1],7/1,8,,
{16}8/2,,3,4,2,,7/1,,
6,5,7,,2,7,3,6,
4,5,3,6,4,5,2,7,
4,5,1,8,2-5[8:1]/7-4[8:1],,,,
2b/7b,,,,6,5,7,4,
6,5,7,8,6v1[8:1],5,7,4,
6,,,,3,4,2,5,
3,4,2,1,3v8[8:1],4,2,5,
3,,,,6,5,7,4,
6,5,8,3,6,5,1,2,
8,7,4,3,7,6,3,2,
6,5,2,1,{32}5w1[8:1],4,3,2,1,8,7,6,
{16}
5b,,,,6,5,8,1,
5,4,8,1,4>1[8:1]*<7[8:1],3,8,1,
,,,,3,4,1,8,
5,6,1,8,2/7,,,,
8/2,,6/1,,7/3,,6/2,,
7/4,,5/3,,{24}5/4w8[8:1],6,7,1,2,3,
{8},,,,,,,,
E
