&title=SOUTH OF THE BORDER!!
&artist=Toby Fox
&first=0.010
&des=a key used up
&clock_count=4
&wholebpm=80.050
&lv_5=?
&des_5=???
&inote_5=
(160)
{16}
3,4,2,5,1,6,8,7,
2,1,3,8,4,7,5,6,
2-5[8:1],,1,,4-8[8:1],,6,,1-6[8:1],,3,,5-2[8:1],,3,,
7-5[8:1]*-4[8:1],,8,,7,,,,
2-5[8:1]/1-6[8:1],38,,21,,,,,
54,,23,,18,,7,7h[16:2],,8,,8,6,,6,,
5,6,4,7,3,8,2,1,
8,7,1,6,2,5,3,4,
7-4[8:1],,8,,5-1[8:1],,3,,8-3[8:1],,6,,4-7[8:1],,6,,
2-4[8:1]*-5[8:1],,1,,2,,,,
7-4[8:1]/8-3[8:1],61,,78,,,,,
45,,76,,81,,2,2h[16:2],,1,,1,3,,3,,
