&title=ヒャダインのじょーじょーゆーじょー
&artist=ヒャダイン/TVアニメ「日常」第14話〜第25話 OPテーマ
&first=0.53
&des=Ragna
&wholebpm=200
&demo_seek=55.7
&demo_len=10
&des_5=Ragna
&lv_5=13
&inote_5=(200){8}
45,,45,,78,,12,,
7h[8:1]/5h[8:1],,2h[8:1]/4h[8:1],,16,,38,,
4h[8:1],{16}6,5,6,,3h[8:1],,5,4,5,,2h[8:1],,4,3,{8}
4,1,1,1,28,28,28,28,
3V15[4:1]/7h[4:1],,,,6,6h[4:1],,5h[4:1],
,4^7[8:1],,3h[4:1],,,18,,
6V84[4:1]/2h[4:1],,,,3,3h[4:1],,4h[4:1],
,5^2[8:1],,6h[4:1],,,1b/8b,,
3h[4:1]/7h[4:1],,,,28,28,,6pp4[16:5],
,3h[4:1],,,1>5[16:3],,6>2[16:3],,
1s5[16:9],,,,,,,,
,4h/5h,3h/6h,2h/7h,1h[4:1]/8h[4:1],,,,
1b/8b,,3h[4:1]/5,,4,4-6[8:1],,2h[4:1],
,7p4[32:11],,5h[4:1],,,3,,
1b/5b,,6h[4:1]/4,,5,5-3[8:1],,7h[4:1],
,2q5[32:11],,4h[4:1],,,6,,
8b/4h[4:1],,,,2b/5h[4:1],,,6b/4h[4:1],
,,,2h[4:1]/8,,4,4,3,
6h[4:1],,5,5,8^5[8:1],1^4[8:1],8,1,
,7h[4:3],5,5,5,5,5,5,
8b/4b,,3h[4:1]/5,,4,4-8[8:1],,2h[4:1],
,7p4[32:11],,5h[4:1],,,3,,
1b/5b,,6h[4:1]/4,,5-1[8:1],,7,7h[4:1],
,2h[4:1],,4h[4:1],,5,7,,
1b/5h[4:1],,,,7b/4h[4:1],,,3b/5h[4:1],
,,,7h[4:1]/1,,5,5,6,
74,,25,,8-4[8:1],1-5[8:1],8,1>8[2:1],
,,,,,,,,
2h[8:1]/4h[8:1],,2h[8:1]/4h[8:1],,
3h[8:1]/4h[8:1],,3h[8:1]/4h[8:1],,
2h[8:1]/4h[8:1],,2h[8:1]/4h[8:1],,
1h[8:1]/4h[8:1],,1h[8:1]/4h[8:1],,
2h[8:1]/5h[8:1],,2h[8:1]/5h[8:1],,
3h[8:1]/6h[8:1],,3h[8:1]/6h[8:1],,
4h[8:1]/7h[8:1],,4h[8:1]/7h[8:1],,
5h[8:1]/8h[8:1],,5h[8:1]/8h[8:1],,
4-2[8:1],7h[8:1],4,7h[8:1],1-4[8:1],6h[8:1],1,6h[8:1],
5-3[8:1],8h[8:1],5,8h[8:1],2-5[8:1],6h[8:1],2,6h[8:1],
4-8[8:1],5h[8:1],4,5h[8:1],
1-5[8:1],4h[16:1],1pp4[32:15]*qq6[32:15],8h[16:1],
,,,,,,3b/7b,,
1b>7[2:3]/5,,,,4,,,,
5^7[2:1]*qq3[2:1],,,,,,,,
8b<2[2:3]/4,,,,5,,,,
4^2[2:1]*pp6[2:1],,,,,,,,
1b<3[2:3]/5,,,,4,,,,
5^3[2:1]*pp7[2:1],,,,,,,,{6}
6h[3:1]/1,2,3,
4h[3:1]/5,6,7,
8h[3:1]/3,2,1,
2h[3:1]/7,6,5,
34,35,36,37,38,31,
2b-7[2:1]/3b-6[2:1],,,,,,{8}
3,4,5,6,73,73,82,82,
1^4[8:1],7,1,8,8,5-1[8:1],6,5,
8,8,2-5[8:1],6,2,7,7,4^1[8:1],
5,4,7,7,8,6v1[8:1],3,6,
2,2,8>7[4:1],5,8,,1b,,
6-3[8:1],3,6,2,2,4^7[8:1],1,4,
3,3,8v5[8:1],1,8,4,4,6,
1-5[8:1],,1/4^1[8:1]*^7[8:1],,,,8b,,
2h[4:3],4,4,4,4,4,4,4,
1v6[8:1],6,1,8,8,5-2[8:1],6,5,
8,8,1-4[8:1],4,1,6,6,3^8[8:1],
8,3,6,6,1,4-8[8:1],3,4,
1,1,7<8[4:1],3,7,,5b,,
2-5[8:1]/7v4[8:1],,2b/7b,,1p5[8:1]/7-4[8:1],,1b/7b,,
8q4[8:1]/1s5[8:1],,1b/8b,,2pp4[8:1]/8q5[8:1],,2b/8b,,
1q5[8:1]/6-4[8:1],,1b/6b,,2v5[8:1]/8z4[8:1],,2b/8b,,
3w7[8:1],,,,5w1[8:1],,,,
4w8[8:1],,,,6w2[8:1],,,,
45,,45,,78,,12,,
7h[8:1]/5h[8:1],,2h[8:1]/4h[8:1],,16,,38,,
25,3,74,6,25,3,74,6,25,3,74,6,3b/5b,,1b/7b,,
45,,45,,78,,12,,
7h[8:1]/5h[8:1],,2h[8:1]/4h[8:1],,16,,38,,
6,{16}3,4,3,,2,,6,5,6,,7,,3,4,{8}
3,1-3[8:1],7-5[8:1],1-4[8:1],7-4[8:1],1-5[16:1],7,1b>1[4:3]*<1[4:3],
,,,,,,,,
E
