&title=PANIC PARADISE
&artist=DJ SHION.Y
&first=0.7
&des=捱思北塔
&des_5=捱思北塔
&clock_count=4
&lv_5=14
&inote_5=(170){4}5h[1:7]/4h[1:2],,,,,,,,,,,,,,,,{2}E3h[4:1],
E8h[4:1],
D4h[4:1],D1h[4:1],
A6h[4:1],D2h[4:1],
{48}E2,Cf,{24}E6,{12},,,,,{8}1/8,1/8,{4}2/7h[4:1],
{16}5,6,5,6,{8}4,4,{16}6,5,6,5,{8}7,7,
{16}4,5,{8}4,{16}6,5,{8}6,{16}3,4,3,4,{8}2,8/1,
{16}7,8,7,8,{8}6,6,{16}8,7,8,7,{8}1,1,
{16}7,8,{8}7,{16}2,1,{8}2,{16}4,3,5,4,{8}6xh[16:1],2xh[16:1],
{16}4,3,4,3,{8}5,5,{16}3,4,3,4,{8}2,2,
{16}6,5,{8}6,{16}4,5,{8}4,{16}6,5,6,5,{8}7,1/8,
{16}2,1,2,1,{8}3,3,{16}1,2,1,2,{8}8,8,
{16}2,1,{8}2,{16}7,8,{8}7,{16}5,6,4,5,{8}3xh[16:1],7xh[16:1],
{4}2>5[8:1],1/2,{8}8/7<4[8:1],6,7/8,1,
3h[8:1],{16}6,5,{8}7h[8:1],{16}2,1,{8}4h[8:1],{16}6,5,{8}7,8/1,
{16}2-8[12:1],1-3[16:1],2,1,{4},{16}6-4[12:1],5-7[16:1],6,5,{4},{16}2,
1,{8}2,{16}7,8,{8}7,4,4,{4}2/6,
8/7<4[8:1],3/7,{8}1/2>5[8:1],3,2/1,8,
6h[8:1],{16}3,4,{8}2h[8:1],{16}7,8,{8}5h[8:1],{16}3,4,{8}2,1/8,
{16}7-1[12:1],8-6[16:1],7,8,{4},{16}3-5[12:1],4-2[16:1],3,4,{4},{16}7,
8,{8}7,{16}2,1,{8}2,8,4,{4}6/2,
7/1<6[8:1],1/2,{8}4/3>8[8:1],2,4/3,6,
7-4[8:1],{16}6,5,{8}7-1[8:1],{16}1,1,{8}7<4[8:1],{16}3,3,{8}7,1h[8:1],
{16}3xV15[8:1],2,1,8,{4},{16}8xV61[8:1],7,6,5,{4},{16}5x,
6,7,8,2x,3,4,5,{8}1,1,{4}3/7,
2/8>3[8:1],8/7,{8}5/6<1[8:1],7,5/6,3,
2-5[8:1],{16}3,4,{8}2-8[8:1],{16}8,8,{8}2>5[8:1],{16}6,6,{8}2,8h[8:1],
{16}6xV84[8:1],7,8,1,{4},{16}1xV38[8:1],2,3,4,{4},{16}4x,
3,2,1,7x,6,5,4,{32}8,7,6,5,4,3,2,1,{4}8b/7b,
6b/5b-8[8:1],5/1,{8}1-5[8:1]/2-5[8:1],3,{4}1/2,
{8}8/7-4[8:1],6,7/8,1h[8:1],{16}3,3,2,2,{4}8b,
{16}7/1<6[8:1],{8},{16}2,{8}1,3,{4}3/4-8[8:1]*-7[8:1],B4f,
{16}2V84[8:1],{8},{16}8,{8}2,6,{4}5-1[8:1]*-2[8:1],5b,
{8}8h[8:1],{32}3x,4x,{16},{8}7h[8:1],{32}2x,3x,{16},{8}6h[8:1],{32}1x,2x,{16},{8}7h[8:1],{32}2x,3x,{16},{8}8h[8:1],
{32}3x,4x,{16},{8}7h[8:1],{32}2x,3x,{16},{8}6h[8:1],{32}1x,2x,{16},{8}7h[8:1],{32}2x,3x,{16},{8}8h[8:1],
{32}3x,4x,{16},{8}7h[8:1],{32}2x,3x,{16},{8}6h[8:1],{32}1x,2x,{16},{8}7h[8:1],{32}2x,3x,{16},{8}8h[8:1],
{32}3x,4x,{16},{8}7qq5[8:1],5<1[16:3],{4}7,2b,
3b/4b>1[8:1],4/8,{8}8-4[8:1]/7-4[8:1],6,{4}8/7,
{8}1/2-5[8:1],3,2/1,8h[8:1],{16}6,6,7,7,{4}1b,
{16}2/8>3[8:1],{8},{16}7,{8}8,6,{4}6/5-1[8:1]*-2[8:1],B5f,
{16}7V15[8:1],{8},{16}1,{8}7,3,{4}4-8[8:1]*-7[8:1],4b,
{8}1h[8:1],{32}6x,5x,{16},{8}2h[8:1],{32}7x,6x,{16},{8}3h[8:1],{32}8x,7x,{16},{8}2h[8:1],{32}7x,6x,{16},{8}1h[8:1],
{32}6x,5x,{16},{8}2h[8:1],{32}7x,6x,{16},{8}3h[8:1],{32}8x,7x,{16},{8}2h[8:1],{32}7x,6x,{16},{8}1h[8:1],
{32}6x,5x,{16},{8}2h[8:1],{32}7x,6x,{16},{8}3h[8:1],{32}8x,7x,{16},{8}2h[8:1],{32}7x,6x,{16},{8}1h[8:1],
{32}6x,5x,{16},{8}2pp4[8:1],4>8[16:3],{4}2,7b,
6-4[16:1],2-5[12:1],8-4[12:1],1x,
3-5[16:1],7-4[12:1],1-5[12:1],8x,
7-1[16:1],2-5[12:1],7-3[12:1],8x,
2-8[16:1],7-4[12:1],2-6[12:1],1x,
7-4[12:1],1<6[12:1],5-8[12:1],5x,
2-5[12:1],8>3[12:1],4-1[12:1],4x,
6<1[12:1],4-7[12:1],1-4[12:1]*-6[12:1],1x,
3>8[12:1],5-2[12:1],8-5[12:1]*-3[12:1],8x,
{1}1b,
,,{4}2qq2[4:1],
2>7[4:1],5,8b,
{16}1/2q6[8:1],{8},{16}8,{8}2,7h[8:1],{16}5-8[8:1],6,{8},{4}2,
{16}8/7p3[8:1],{8},{16}1,{8}7,2h[8:1],{16}4-1[8:1],3,{8},{4}7h[4:1],
{8}E1,E2,6/E3,E4,8/E5/D5,E6/D6,2/E7/D7,E8/D8,
{16}1b,4,3,4,3,4,2b,6,5,6,{8}1b,8/3b,7b/5,
{16}3/4b>1[8:1],{8},{16}5,{8}4,6h[8:1],{16}8-5[8:1]*-3[8:1],7,{8}1,{4}8,
{16}6/5<8[8:1],{8},{16}4,{8}5,3h[8:1],{16}1-4[8:1]*-6[8:1],2,{8}8,{4}1,
{16}3/4>1[8:1],{8},{16}5,{8}4,6h[8:1],{16}8-5[8:1]*-3[8:1],7,{8}1,{4}8,
{16}2/1>4[8:1],{8},{16}8,{8}1,7h[8:1],{16}5-8[8:1]*-2[8:1],6,{8}4,{4}5,
{16}3/4>1[8:1],{8},{16}5,{8}4,6h[8:1],{16}8-5[8:1]*-3[8:1],7,{8}1,{4}8,
{16}6/5<8[8:1],{8},{16}4,{8}5,3h[8:1],{16}1-4[8:1]*-6[8:1],2,{8}8,{4}1,
{16}3/4>1[8:1],{8},{16}5,{8}4,6h[8:1],{16}8-5[8:1]*-3[8:1],7,{8}1,{4}8V62[4:3],
{1}4b,
{8}8bp4[8:1],{16}6,5,{8}8,{16}2,2,4-7[8:1]*-8[8:1],3,{8}5,{4}4,
{8}1q5[8:1],{16}3,4,{8}1,{16}7,7,5<8[8:1],6,{8}4,5/2,2,
1-6[8:1],{16}3,4,{8}1,{16}7,7,5-2[8:1]*-1[8:1],6,{8}4,{4}5,
{8}8v3[8:1],{16}6,5,{8}8,{16}2,2,4,1,{8}6h[8:1],{16}8,8,6,5,
{8}7p3[8:1],{16}8,4,{8}7,{16}2,2,4-8[8:1]*-7[8:1],3,{8}6,{4}4,
{8}1q5[8:1],{16}2,6,{8}1,{16}7,7,4q8[8:1],6,{8}2,1/4,1,
2-5[8:1],{16}3,4,{8}2,{16}8,8,5-1[8:1]*-2[8:1],6,{8}4,{4}5,
{8}8-4[8:1],{16}7,1,{8}8,{16}2,2,1,3,4,3,7,5,6,5,
{8}8b<5[8:1],{16}7,4,{8}8,{16}2,2,4v5[8:1],3,{8}5-2[8:1],{4}7/4,
{8}8-4[8:1],{16}7,1,{8}8,{16}2,2,5>2[8:1],4,{8}6,5/8h[16:1],8h[16:1],
7/1b-5[8:1],{16}2,4,{8}1,{16}7,7,5v4[8:1],6,{8}4-7[8:1],{4}5/2,
{8}1b-5[8:1],{16}2,8,{8}1,{16}7,7,4<7[8:1],5,{8}3,4/1h[16:1],1h[16:1],
8x/2b-5[8:1],{16}3,4,{8}2x,8,{16}6bx-1[8:1],5,{8}7,6x/1x,2,
3x/8b-4[8:1],{16}6,5,{8}8x,2,{16}3bx-8[8:1],5,{8}2,7x/3x,6,
1x/5b<8[8:1],{16}6,4,{8}5bx,1,{16}2b-6[8:1],4,{8}3,6x/2bx,7,
8x/5b-1[8:1],{16}4,6,{8}5bx,8,{16}7b-4[8:1],5,{8}6,8x/7bx,1,
{32}2b/5b,3bx/6bx,
E
